вход на сайт

Имя пользователя :
Пароль :

Восстановление пароля Регистрация
Повесть о «Неистовом» (Борис Бабочкин, драма, военный, 1947) [DVDRip, Перевод: Оригинал]
Рейтинг:
(голосов: 1)



[img]{THEME}/images/logopost.png[/img]



Повесть о «Неистовом»

Год выпуска: 1947
Страна: СССР
Производство: Мосфильм
Жанр: драма, военный

Режиссёр: Борис Бабочкин
В ролях: Борис Бабочкин, Михаил Глузский, Леонид Кмит, Иван Переверзев, Михаил Державин, Дмитрий Дубов, Чеслав Сушкевич, Иван Кузнецов, Александр Баранов, Александр Гречаный, Петр Савин, Лев Потемкин

Перевод: Оригинал
Субтитры: Отсутствуют

Описание:
Фильм о подвиге моряков миноносца «Неистовый», сражавшихся во время Великой Отечественной войны на Баренцовом море.


Дополнительно:
MediaInfo ▼Text
Общее
Полное имя :J:Кинокопилка.РуРАЗДАЧАПовесть о Неистовомpovest_o_neistovomПовесть о Неистовом.avi
Формат :AVI
Размер :1.37 GiB
Продолжительность :01:29:33.600
Общий поток :2 182 Kbps
Программа кодирования :FairUse Wizard - http://fairusewizard.com
Библиотека кодирования :The best and REALLY easy backup tool

Видео
Идентификатор :0
Формат :MPEG-4 Visual
Профиль формата :Advanced [email protected]
Параметр BVOP формата :2
Параметр Qpel формата :No
Параметр GMC формата :0
Параметр Matrix формата :Default (H.263)
Идентификатор кодека :XVID
Продолжительность :1h 29mn 33s 600ms
Битрейт :1 981 Kbps
Ширина :704 pixels
Высота :528 pixels
Соотношение сторон :1.333
Частота кадров :25.000 fps
Глубина цвета :8 bits
Подвыборка цветности :4:2:0
Цветовое пространство :YUV
Тип развертки :Progressive
Бит/(Пиксели*Кадры) :0.213
Размер потока :1.24 GiB (91%)
Библиотека кодирования :XviD0047

Аудио #1
Идентификатор :1
Формат :AC-3
Формат/Информация :Audio Coding 3
Идентификатор кодека :2000
Продолжительность :01:29:33.600
Вид битрейта :Constant
Битрейт :192 Kbps
Канал(ы) :2 channels
Расположение каналов :Front: L R
Частота :48.0 KHz
Битовая глубина :16 bits
Метод сжатия :Lossy
Размер потока :123 MiB (9%)Тех. данные:
Качество:DVDRip
Продолжительн
f2dfbdb7a80f5493f1f757d860742165039d0b4aПовесть о «Неистовом» (Борис Бабочкин, драма, военный, 1947) [DVDRip, Перевод: Оригинал] Повесть о «Неистовом» (Борис Бабочкин, драма, военный, 1947) [DVDRip, Перевод: Оригинал] " />

Аплоадер: Админ, дата: 24-09-2012, 18:52, торрент скачан: 359 раз

Понравилась раздача? Посмотрите эти:
  • Борец и клоун (Борис Барнет, Константин Юдин, драма, спорт, 1957) [DVDRip, ...
  • Бой под Соколом (Александр Разумный, военный, 1942) [DVDRip, Не требуется]
  • Летят журавли (Михаил Калатозов, драма, мелодрама, военный, 1957) [DVDRip, ...
  • Жди меня (Борис Иванов, Александр Столпер, драма, военный, 1972) [DVDRip, Н ...
  • Дорога (Александр Столпер, боевик, 1955) [DVDRip, Не требуется]
  • Таинственная находка (Борис Бунеев, детский, приключения, 1954) [DVDRip, Не ...
  • Полонез Огинского (Лев Голуб, драма, военный, 1971) [DVDRip, Не требуется]
  • Пакет (Владимир Назаров, комедия, приключения, семейный, 1965) [DVDRip, Не ...
  • Парень из нашего города (Александр Столпер, Борис Иванов, драма, военный, 1 ...
  • Иван да Марья (Борис Рыцарев, фэнтези, мелодрама, комедия, семейный, музыка ...
  • Отец солдата (Резо Чхеидзе, драма, военный, 1964) [DVDRip, Русский (оригина ...
  • Оптимистическая трагедия (Самсон Самсонов, драма, военный, история, 1963) [ ...
  • Освобождение (Александр Довженко, Юлия Солнцева, документальный, 1940) [DVD ...
  • Назови пароль! / U gori raste zelen bor (Антун Врдоляк, драма, военный, 197 ...
  • Легенда о княгине Ольге (Юрий Ильенко, драма, история, 1983) [DVDRip, Не тр ...
  • Комиссар (Александр Аскольдов, драма, военный, 1967) [DVDRip, Не требуется] ...
  • Князь Игорь (Роман Тихомиров, мюзикл, приключения, 1969) [DVDRip, Не требуе ...
  • Повесть о настоящем человеке (Александр Столпер, драма, военный, 1948) [DVD ...
  • Сотрудник ЧК (Борис Волчек, боевик, история, 1963) [DVDRip, Не требуется]
  • Славный малый (Борис Барнет, военный, 1943) [DVDRip, Не требуется]
  • Чапаев (Георгий Васильев, Сергей Васильев, драма, военный, биография, истор ...
  • Вавилон XX (Иван Миколайчук, драма, 1983) [DVDRip, Профессиональный (полное ...
  • Болотные солдаты (Александр Мачерет, драма, военный, 1938) [DVDRip, Не треб ...
  • Донская повесть (Владимир Фетин, драма, 1964) [DVDRip, Не требуется]
  • Целуются зори (Сергей Никоненко, комедия, 1978) [DVDRip, Не требуется]
  • Информация
    Посетители, находящиеся в группе Гости, не могут оставлять комментарии к данной публикации.