вход на сайт

Имя пользователя :
Пароль :

Восстановление пароля Регистрация
Насреддин в Бухаре (Nasreddin v Bukhare) (Яков Протазанов, мелодрама, комедия, история, 1943) [DVDRip, Не требуется]
Рейтинг:
(голосов: 1)



[img]{THEME}/images/logopost.png[/img]



Насреддин в Бухаре / Насреддин в Бухаре / Nasreddin v Bukhare

Год выпуска: 1943
Страна: СССР
Производство: Студия Ташкент
Жанр: мелодрама, комедия, история

Режиссёр: Яков Протазанов
В ролях: Лев Свердлин, Ш. Мирзакаримова, Эммануил Геллер, Василий Зайчиков, Степан Каюков, Матвей Ляров, Николай Волков, А. Талипов, Асад Исматов, Иван Бобров

Перевод: Не требуется
Субтитры: Отсутствуют

Описание:
Комедия по роману Л. Соловьева «Возмутитель спокойствия». Благодаря находчивости и выдумке неугомонного весельчака Ходжи Насреддина многим угнетенным и обездоленным удается противостоять жестокому эмиру Бухары.


Дополнительно:
MediaInfo ▼Text
Общее
Полное имя :M:ФильмыРАЗДАЧАНасреддин в БухареPohozhdeniya.Nasreddina.1946.DVDRip.avi
Формат :AVI
Размер :1.37 GiB
Продолжительность :01:20:09.760
Общий поток :2 450 Kbps
Программа кодирования :VirtualDubMod 1.5.10.3 | www.virtualdub-fr.org || (build 2550/release)

Видео
Идентификатор :0
Формат :MPEG-4 Visual
Профиль формата :Advanced [email protected]
Параметр BVOP формата :2
Параметр Qpel формата :No
Параметр GMC формата :0
Параметр Matrix формата :Default (H.263)
Идентификатор кодека :XVID
Продолжительность :1h 20mn 9s 760ms
Битрейт :2 249 Kbps
Ширина :720 pixels
Высота :544 pixels
Соотношение сторон :1.324
Частота кадров :25.000 fps
Глубина цвета :8 bits
Подвыборка цветности :4:2:0
Цветовое пространство :YUV
Тип развертки :Progressive
Бит/(Пиксели*Кадры) :0.230
Размер потока :1.26 GiB (92%)
Библиотека кодирования :XviD0050

Аудио #1
Идентификатор :1
Формат :AC-3
Формат/Информация :Audio Coding 3
Идентификатор кодека :2000
Продолжительность :01:20:09.544
Вид битрейта :Constant
Битрейт :192 Kbps
Канал(ы) :2 channels
Расположение каналов :Front: L R
Частота :48.0 KHz
Битовая глубина :16 bits
Метод сжатия :Lossy
Размер потока :110 MiB (8%)Тех. д
aa8d97ef0dde7ebf201c2de5a3abb776369588a2Насреддин в Бухаре (Nasreddin v Bukhare) (Яков Протазанов, мелодрама, комедия, история, 1943) [DVDRip, Не требуется] Насреддин в Бухаре (Nasreddin v Bukhare) (Яков Протазанов, мелодрама, комедия, история, 1943) [DVDRip, Не требуется] " />

Аплоадер: Админ, дата: 8-09-2012, 11:17, торрент скачан: 359 раз

Понравилась раздача? Посмотрите эти:
  • Дама с собачкой (Иосиф Хейфиц, драма, мелодрама, 1959) [DVDRip, Не требуетс ...
  • Воздушный извозчик (Герберт Раппапорт, мюзикл, комедия, 1943) [DVDRip, Не т ...
  • Иван да Марья (Борис Рыцарев, фэнтези, мелодрама, комедия, семейный, музыка ...
  • Опекун (Эдгар Ходжикян, Альберт С. Мкртчян, комедия, 1970) [DVDRip, Не треб ...
  • Моя любовь (Владимир Корш-Саблин, мюзикл, мелодрама, комедия, 1940) [DVDRip ...
  • Молчание - золото / Le silence est dor (Рене Клер, мелодрама, комедия, 1947 ...
  • Пиковая дама (Яков Протазанов, немое кино, ужасы, фэнтези, драма, 1916) [DV ...
  • Первая перчатка (Андрей Фролов, мюзикл, мелодрама, комедия, спорт, 1946) [D ...
  • Сорок первый (Яков Протазанов, драма, военный, 1926) [TVRip, Немое кино, Су ...
  • Тень (Реставрация) (Надежда Кошеверова, фэнтези, драма, мелодрама, комедия, ...
  • Славный малый (Борис Барнет, военный, 1943) [DVDRip, Не требуется]
  • Я вас любил... (Илья Фрэз, мелодрама, комедия, 1967) [DVDRip, Не требуется] ...
  • Старомодная комедия (Эра Савельева, Татьяна Березанцева, мелодрама, 1978) [ ...
  • Похождения Насреддина (Наби Ганиев, комедия, 1946) [DVDRip, Не требуется]
  • Праздник святого Йоргена (Яков Протазанов, комедия, 1930) [DVDRip, Професси ...
  • Полустанок (Борис Барнет, мелодрама, комедия, 1963) [DVDRip, Не требуется]
  • Насреддин в Бухаре (Яков Протазанов, сказка, комедия, 1943) [DVDRip,Оригина ...
  • Кутузов (Владимир Петров, драма, 1943) [DVDRip, Не требуется]
  • Лермонтов (Альберт Гендельштейн, драма, биография, 1943) [DVDRip, Не требу ...
  • К Черному морю (Андрей Тутышкин, мелодрама, комедия, 1957) [DVDRip, Не треб ...
  • Информация
    Посетители, находящиеся в группе Гости, не могут оставлять комментарии к данной публикации.