вход на сайт

Имя пользователя :
Пароль :

Восстановление пароля Регистрация
Приходите завтра (Евгений Ташков, мелодрама, комедия, 1963) [BDRip - AVC, Не требуется]
Рейтинг:
(голосов: 1)



[img]{THEME}/images/logopost.png[/img]



Приходите завтра
-

Год выпуска: 1963
Страна: СССР
Производство: Одесская киностудия
Жанр: мелодрама, комедия

Режиссёр: Евгений Ташков
В ролях: Екатерина Савинова, Анатолий Папанов, Юрий Горобец, Антонина Максимова, Надежда Животова, Александр Ширвиндт, Юрий Белов, Борис Бибиков, Борис Коковкин, Зинаида Дьяконова, Александра Денисова, Евгений Ташков, Михаил Кононов

Перевод: 1 - Не требуется
Субтитры: Отсутствуют

Описание:
Фрося Бурлакова приезжает в Москву из глухой сибирской деревни поступать в Институт имени Гнесиных. Она мечтает стать певицей. Однако, выясняется, что она опоздала — прием уже закончен. Проведя в институте несколько дней, Фрося постоянно сталкивается с профессором Соколовым, который наконец соглашается её прослушать….



Дата премьеры (мир): 19 апреля 1963
Дата премьеры (РФ): 19 апреля 1963
Релиз на DVD: 10 октября 2011, «Азимут»
Релиз на Blu-Ray: 3 февраля 2011, «Парадиз Медиа»

Качество: BDRip - AVC | Blu-ray disk
Продолжительность: 01:36:44 час.

Формат: MKV
Видео кодек: H.264
Аудио кодек: AC3
Видео: 960x720 (4:3), 23.976 fps, H.264 ~2 678 kbps avg, 0.162 bit/pixel
Аудио #1: 48 kHz, AC3, 3/2 (L,C,R,l,r) + LFE ch, ~448.00 kbps avg | Оригинал (Русский)
Аудио #2: 48 kHz, AC3, 1 (L) ch, ~96.00 kbps avg | Оригинал (Русский)
MediaInfo ▼Общее
Уникальный идентификатор : 193119775463201089002204860364518857405 (0x9149840E3529D7368B0DF834FD1C1ABD)
Полное имя : E:VideoПриходите.завтра.1963.BDRip-AVC.by.kvvk_2009.mkv
Формат : Matroska
Версия формата : Version 2
Размер файла : 2,18 Гбайт
Продолжительность : 1 ч. 36 м.
Общий поток : 3224 Кбит/сек
Дата кодирования : UTC 2012-07-26 18:10:59
Программа кодирования : mkvmerge v2.9.8 (Cest le bon) built on Aug 13 2009 12:49:06
Библиотека кодирования : libebml v0.7.7 + libmatroska v0.8.1
Видео
Идентификатор : 1
Формат : AVC
Формат/Информация : Advanced Video Codec
Профиль формата : [email protected]
Параметр CABAC формата : Да
Параметр ReFrames формата : 8 кадров
Идентификатор кодека : V_MPEG4/ISO/AVC
Продолжительность : 1 ч. 36 м.
Битрейт : 2678 Кбит/сек
Ширина : 960 пикселей
Высота : 720 пикселей
Соотношение сторон : 4:3
Частота кадров : 23,976 кадра/сек
Цветовое пространство : YUV
Субдискретизация насыщенности : 4:2:0
Битовая глубина : 8 бит
Тип развёртки : Прогрессивная
Бит/(Пиксели*Кадры) : 0.162
Размер потока : 1,77 Гбайт (81%)
Библиотека кодирования : x264 core 125 r2200 999b753
Настройки программы : cabac=1 / ref=8 / deblock=1:-2:-1 / analyse=0x3:0x113 / me=umh / subme=10 / psy=1 / psy_rd=1.00:0.15 / mixed_ref=1 / me_range=32 / chroma_me=1 / trellis=2 / 8x8dct=1 / cqm=0 / deadzone=21,11 / fast_pskip=0 / chroma_qp_offset=-3 / threads=3 / lookahead_threads=1 / sliced_threads=0 / nr=0 / decimate=0 / interlaced=0 / bluray_compat=0 / constrained_intra=0 / bframes=10 / b_pyramid=2 / b_adapt=2 / b_bias=0 / direct=3 / weightb=1 / open_gop=0 / weightp=2 / keyint=230 / keyint_min=22 / scenecut=40 / intra_refresh=0 / rc_lookahead=50 / rc=2pass / mbtree=1 / bitrate=2678 / ratetol=1.0 / qcomp=0.60 / qpmin=0 / qpmax=51 / qpstep=4 / cplxblur=20.0 / qblur=0.5 / ip_ratio=1.40 / aq=1:0.90
Язык : English
Default : Нет
Forced : Нет
Аудио #1
Идентификатор : 2
Формат : AC-3
Формат/Информация : Audio Coding 3
Расширение режима : CM (complete main)
Идентификатор кодека : A_AC3
Продолжительность : 1 ч. 36 м.
Вид битрейта : Постоянный
Битрейт : 448 Кбит/сек
Каналы : 6 каналов
Расположение каналов : Front: L C R, Side: L R, LFE
Частота : 48,0 КГц
Битовая глубина : 16 бит
Метод сжатия : С потерями
Размер потока : 310 Мбайт (14%)
Заголовок : AC3 6ch @ 448 kbps
Язык : Russian
Default : Да
Forced : Нет
Аудио #2
Идентификатор : 3
Формат : AC-3
Формат/Информация : Audio Coding 3
Расширение режима : CM (complete main)
Идентификатор кодека : A_AC3
Продолжительность : 1 ч. 36 м.
Вид битрейта : Постоянный
Битрейт : 96,0 Кбит/сек
Каналы : 1 канал
Расположение каналов : Front: C
Частота : 48,0 КГц
Битовая глубина : 16 бит
Метод сжатия : С потерями
Размер потока : 66,4 Мбайт (3%)
bdd1edf088726d828ea4ac464fcef0927e61be53Приходите завтра (Евгений Ташков, мелодрама, комедия, 1963) [BDRip - AVC, Не требуется] Приходите завтра (Евгений Ташков, мелодрама, комедия, 1963) [BDRip - AVC, Не требуется] " />

Аплоадер: Админ, дата: 28-07-2012, 15:38, торрент скачан: 359 раз

Понравилась раздача? Посмотрите эти:
  • Королевство кривых зеркал (Александр Роу, фэнтези, семейный, 1963) [BDRip-A ...
  • Даю год / I Give It a Year (Дэн Мазер, мелодрама, комедия, 2012) [BDRip-AVC ...
  • Пес Барбос и необычный кросс / Самогонщики / «Сто грамм» для храбрости (Лео ...
  • Холостячки / Bachelorette (Лесли Хэдланд, комедия, мелодрама, 2012) [BDRip- ...
  • Толстяк на ринге / Here Comes the Boom (Фрэнк Корачи, Боевик, комедия, 2012 ...
  • Суррогат / The Sessions (Бен Луин, Драма, 2012) [BDRip-AVC, Профессиональны ...
  • Страшно красив / Beastly (Даниел Барнз, фэнтези, драма, мелодрама, 2011) [H ...
  • Начинающие / Beginners (Майк Миллс / Mike Mills, драма, мелодрама, комедия, ...
  • Главное - не бояться! / A Little Bit of Heaven (Николь Кэссел / Nicole Kass ...
  • Переростки / The Inbetweeners (Бен Палмер, Комедия, 2011) [BDRip-AVC, Профе ...
  • Самоубийцы (Егор Баранов, комедия, 2012) [DVDRip-AVC, Оригинал]
  • Свадебный разгром / A Few Best Men (Стефан Эллиотт, комедия, 2011) [BDRip-A ...
  • Проект X: Дорвались / Project X (Нима Нуризаде, комедия, 2012) [BDRip - AVC ...
  • Девчата (Юрий Чулюкин, мелодрама, комедия, 1961) [BDRip - AVC, Не требуется ...
  • Весна на Заречной улице (Феликс Миронер, Марлен Хуциев, мелодрама, 1956) [B ...
  • Эд Вуд / Ed Wood (Тим Бёртон, драма, комедия, биография, 1994) [BDRip-AVC, ...
  • Помогите Стать Отцом / Not Suitable For Children (Питер Темплмен, Мелодрама ...
  • Скрат: Потерянный орех / Scrat: Gone Nutty (Карлос Салдана, короткометражка ...
  • Приходите завтра… (Евгений Ташков, комедия, мелодрама, 1963) [BDRip 1080p, ...
  • Лето. Одноклассники. Любовь / LOL (Лиза Азуэлос, Драма, мелодрама, комедия, ...
  • Лето. Одноклассники. Любовь / LOL (Лиза Азуэлос, Драма, мелодрама, комедия, ...
  • Лоракс: Серенада / The Lorax: Serenade (Кайл Балда, мультфильм, комедия, му ...
  • Сейчас самое время / Now Is Good (Ол Паркер, Мелодрама, 2012) [BDRip-AVC, П ...
  • Приходите завтра! (Евгений Ташков, комедия, 1963) [DVDRip]
  • Приходите завтра // В ЦВЕТЕ (Евгений Ташков, мелодрама, комедия, 1962) [SAT ...
  • Информация
    Посетители, находящиеся в группе Гости, не могут оставлять комментарии к данной публикации.