вход на сайт

Имя пользователя :
Пароль :

Восстановление пароля Регистрация
Весна на Заречной улице (Феликс Миронер, Марлен Хуциев, мелодрама, 1956) [BDRip - AVC, Не требуется]
Рейтинг:
(голосов: 1)



[img]{THEME}/images/logopost.png[/img]



Весна на Заречной улице
-

Год выпуска: 1956
Страна: СССР
Производство: Одесская киностудия
Жанр: мелодрама

Режиссёр: Феликс Миронер, Марлен Хуциев
В ролях: Нина Иванова, Николай Рыбников, Владимир Гуляев, Валентина Пугачева, Геннадий Юхтин, Римма Шорохова, Николай Ключнев, Марина Гаврилко, Юрий Белов, Валентин Брылеев

Перевод: 1 - Не требуется
Субтитры: Отсутствуют
Описание:
История любви юной учительницы школы рабочей молодежи и ее ученика — одна из самых популярных отечественных мелодрам. Герой фильма, парень лихой и самоуверенный, лучший сталевар завода, не привык к отказам женщин. И вдруг его домогательства получают отпор!..
Поначалу он пытается играть в безразличие. Но проходит время — и он вдруг понимает, что к нему впервые пришло настоящее, глубокое чувство.



Дата премьеры (мир): 26 ноября 1956
Релиз на DVD: 18 ноября 2008, «Lizard Cinema Trade»
Релиз на Blu-Ray: 15 декабря 2010, «Парадиз Медиа»

Качество: BDRip - AVC | исх.Весна на Заречной улице.Blu-ray disk
Продолжительность: 01:34:00 час.

Формат: MKV
Видео кодек: H.264
Аудио кодек: АС3
Видео: 992x720 (1,378:1), 23.976 fps, H.264 ~2 770 kbps avg, 0.162 bit/pixel
Аудио #1: 48 kHz, АС3, 3/2 (L,C,R,l,r) + LFE ch, ~448.00 kbps avg | Оригинал
Аудио #2: 48 kHz, АС3, 1 (L) ch, ~96.00 kbps avg | Оригинал (Английский)
MediaInfo ▼Общее
Уникальный идентификатор : 179392684161200888043364723418024801123 (0x86F5C6337A99F9EAAF7145E4356E7363)
Полное имя : E:VideoВесна.на.Заречной.улице.1956.by.kvvk_2009.mkv
Формат : Matroska
Версия формата : Version 2
Размер файла : 2,18 Гбайт
Продолжительность : 1 ч. 34 м.
Общий поток : 3316 Кбит/сек
Дата кодирования : UTC 2012-07-21 16:13:04
Программа кодирования : mkvmerge v2.9.8 (Cest le bon) built on Aug 13 2009 12:49:06
Библиотека кодирования : libebml v0.7.7 + libmatroska v0.8.1
Видео
Идентификатор : 1
Формат : AVC
Формат/Информация : Advanced Video Codec
Профиль формата : [email protected]
Параметр CABAC формата : Да
Параметр ReFrames формата : 8 кадров
Идентификатор кодека : V_MPEG4/ISO/AVC
Продолжительность : 1 ч. 34 м.
Битрейт : 2770 Кбит/сек
Ширина : 992 пикселя
Высота : 720 пикселей
Соотношение сторон : 1,378
Частота кадров : 23,976 кадра/сек
Цветовое пространство : YUV
Субдискретизация насыщенности : 4:2:0
Битовая глубина : 8 бит
Тип развёртки : Прогрессивная
Бит/(Пиксели*Кадры) : 0.162
Размер потока : 1,78 Гбайт (82%)
Библиотека кодирования : x264 core 125 r2200 999b753
Настройки программы : cabac=1 / ref=8 / deblock=1:-2:-1 / analyse=0x3:0x113 / me=umh / subme=10 / psy=1 / psy_rd=1.00:0.10 / mixed_ref=1 / me_range=32 / chroma_me=1 / trellis=2 / 8x8dct=1 / cqm=0 / deadzone=21,11 / fast_pskip=0 / chroma_qp_offset=-3 / threads=3 / lookahead_threads=1 / sliced_threads=0 / nr=0 / decimate=0 / interlaced=0 / bluray_compat=0 / constrained_intra=0 / bframes=8 / b_pyramid=2 / b_adapt=2 / b_bias=0 / direct=3 / weightb=1 / open_gop=0 / weightp=2 / keyint=230 / keyint_min=22 / scenecut=40 / intra_refresh=0 / rc=2pass / mbtree=0 / bitrate=2770 / ratetol=1.0 / qcomp=0.60 / qpmin=0 / qpmax=51 / qpstep=4 / cplxblur=20.0 / qblur=0.5 / ip_ratio=1.40 / pb_ratio=1.30 / aq=1:0.90
Язык : English
Default : Нет
Forced : Нет
Аудио #1
Идентификатор : 2
Формат : AC-3
Формат/Информация : Audio Coding 3
Расширение режима : CM (complete main)
Идентификатор кодека : A_AC3
Продолжительность : 1 ч. 34 м.
Вид битрейта : Постоянный
Битрейт : 448 Кбит/сек
Каналы : 6 каналов
Расположение каналов : Front: L C R, Side: L R, LFE
Частота : 48,0 КГц
Битовая глубина : 16 бит
Метод сжатия : С потерями
Размер потока : 301 Мбайт (14%)
Заголовок : AC3 6ch @ 448 kbps
Язык : Russian
Default : Да
Forced : Нет
Аудио #2
Идентификатор : 3
Формат : AC-3
Формат/Информация : Audio Coding 3
Расширение режима : CM (complete main)
Идентификатор кодека : A_AC3
Продолжительность : 1 ч. 34 м.
Вид битрейта : Постоянный
Битрейт : 96,0 Кбит/сек
Каналы : 1 канал
Расположение каналов
917091b7f490698c0dd22d6c765435cef1012ae1Весна на Заречной улице (Феликс Миронер, Марлен Хуциев, мелодрама, 1956) [BDRip - AVC, Не требуется] Весна на Заречной улице (Феликс Миронер, Марлен Хуциев, мелодрама, 1956) [BDRip - AVC, Не требуется] " />

Аплоадер: Админ, дата: 22-07-2012, 17:35, торрент скачан: 359 раз

Понравилась раздача? Посмотрите эти:
  • Усатый нянь (Владимир Грамматиков, комедия, семейный, 1977) [DVDRip-AVC, Не ...
  • Астрал на улице Арлетт / 388 Arletta Avenue (Рэндолл Коул, Триллер, 2011) [ ...
  • Весна на Заречной улице (мелодрама, Марлен Хуциев, Феликс Миронер, 1956) [B ...
  • Таймлесс. Рубиновая книга / Rubinrot (Феликс Фуксштайнер, Фантастика, фэнте ...
  • Даю год / I Give It a Year (Дэн Мазер, мелодрама, комедия, 2012) [BDRip-AVC ...
  • Толстяк на ринге / Here Comes the Boom (Фрэнк Корачи, Боевик, комедия, 2012 ...
  • Суррогат / The Sessions (Бен Луин, Драма, 2012) [BDRip-AVC, Профессиональны ...
  • Весна на Заречной улице [1956, Мелодрама, DVDRip]
  • Переростки / The Inbetweeners (Бен Палмер, Комедия, 2011) [BDRip-AVC, Профе ...
  • Девчата (Юрий Чулюкин, мелодрама, комедия, 1961) [BDRip - AVC, Не требуется ...
  • Приходите завтра (Евгений Ташков, мелодрама, комедия, 1963) [BDRip - AVC, Н ...
  • Эд Вуд / Ed Wood (Тим Бёртон, драма, комедия, биография, 1994) [BDRip-AVC, ...
  • Четыре Рождества / Four Christmases (Сет Гордон, Драма, мелодрама, комедия, ...
  • Помогите Стать Отцом / Not Suitable For Children (Питер Темплмен, Мелодрама ...
  • Скрат: Потерянный орех / Scrat: Gone Nutty (Карлос Салдана, короткометражка ...
  • Весна на Заречной улице (мелодрама; Марлен Хуциев, Феликс Миронер, 1956) [B ...
  • Лоракс: Серенада / The Lorax: Serenade (Кайл Балда, мультфильм, комедия, му ...
  • Невероятный Халк / The Incredible Hulk (Луи Летерье, фантастика, боевик, тр ...
  • Сейчас самое время / Now Is Good (Ол Паркер, Мелодрама, 2012) [BDRip-AVC, П ...
  • Весна на заречной улице (Марлен Хуциев, Феликс Миронер, Мелодрама, 1956 г) ...
  • Весна на Заречной улице: неоконченный рассказ… (Александр Адамович, докуме ...
  • Весна на Заречной улице ( Николай Рыбников, мелодрама 1956) [DVDRip, полная ...
  • Весна на Заречной улице (Марлен Хуциев, Феликс Миронер, мелодрама, 1956) [B ...
  • Весна на Заречной улице (Марлен Хуциев, Феликс Миронер, мелодрама, 1956 год ...
  • Весна на Заречной улице (Марлен Хуциев, Феликс Миронер, мелодрама, 1956 год ...
  • Информация
    Посетители, находящиеся в группе Гости, не могут оставлять комментарии к данной публикации.