вход на сайт

Имя пользователя :
Пароль :

Восстановление пароля Регистрация
Девчата (Юрий Чулюкин, мелодрама, комедия, 1961) [BDRip - AVC, Не требуется]
Рейтинг:
(голосов: 1)



[img]{THEME}/images/logopost.png[/img]



Девчата

Год выпуска: 1961
Страна: СССР
Производство: Мосфильм
Жанр: мелодрама, комедия

Режиссёр: Юрий Чулюкин
В ролях: Надежда Румянцева, Николай Рыбников, Люсьена Овчинникова, Станислав Хитров, Инна Макарова, Светлана Дружинина, Нина Меньшикова, Николай Погодин, Михаил Пуговкин, Анатолий Адоскин

Перевод: Не требуется
Субтитры: отсутствуют

Описание: В сибирский поселок приехала юная повариха Тося Кислицына — наивная и эксцентричная девчонка. Она сует свой нос во все дела, каждому стремится помочь. Местный красавец Илья на спор заводит с Тосей роман, сопровождающийся массой комичных ситуаций…Топ250: 123

Дата премьеры (мир): 7 марта 1962
Релиз на DVD: 11 января 2011, «Парадиз Медиа»
Релиз на Blu-Ray: 8 мая 2012, «Парадиз Медиа»
Качество: BDRip - AVC
Продолжительность: 01:36:02

Формат: MKV
Видео кодек: x264
Аудио кодек: AC3
Видео: 1168x496 (2.35:1), 23.976 fps, AVC, 2796 kbps avg, 0.201 bit/pixel
Аудио: 48 kHz, AC3, 6 channels (Front: L C R, Side: L R, LFE), ~448.00 kbps avg

MediaInfo ▼TextОбщее
Уникальный идентификатор : 174349093208635334990289319567527173389 (0x832A69F7E36FE4CA84FF4C0D057EDD0D)
Полное имя : E:VideoДевчата.1961.BDRip-AVC.by.kvvk_2009.mkv
Формат : Matroska
Версия формата : Version 2
Размер файла : 2,18 Гбайт
Продолжительность : 1 ч. 36 м.
Общий поток : 3246 Кбит/сек
Дата кодирования : UTC 2012-06-13 21:48:18
Программа кодирования : mkvmerge v2.9.8 (Cest le bon) built on Aug 13 2009 12:49:06
Библиотека кодирования : libebml v0.7.7 + libmatroska v0.8.1

Видео
Идентификатор : 1
Формат : AVC
Формат/Информация : Advanced Video Codec
Профиль формата : [email protected]
Параметр CABAC формата : Да
Параметр ReFrames формата : 8 кадров
Идентификатор кодека : V_MPEG4/ISO/AVC
Продолжительность : 1 ч. 36 м.
Битрейт : 2796 Кбит/сек
Ширина : 1168 пикселей
Высота : 496 пикселей
Соотношение сторон : 2,35:1
Частота кадров : 23,976 кадра/сек
Цветовое пространство : YUV
Субдискретизация насыщенности : 4:2:0
Битовая глубина : 8 бит
Тип развёртки : Прогрессивная
Бит/(Пиксели*Кадры) : 0.201
Размер потока : 1,83 Гбайт (84%)
Библиотека кодирования : x264 core 120 r2164 da19765
Настройки программы : cabac=1 / ref=8 / deblock=1:-2:-2 / analyse=0x3:0x113 / me=umh / subme=10 / psy=1 / psy_rd=1.00:0.00 / mixed_ref=1 / me_range=32 / chroma_me=1 / trellis=2 / 8x8dct=1 / cqm=0 / deadzone=21,11 / fast_pskip=0 / chroma_qp_offset=-2 / threads=3 / sliced_threads=0 / nr=0 / decimate=0 / interlaced=0 / bluray_compat=0 / constrained_intra=0 / bframes=7 / b_pyramid=2 / b_adapt=2 / b_bias=0 / direct=3 / weightb=1 / open_gop=0 / weightp=2 / keyint=230 / keyint_min=23 / scenecut=40 / intra_refresh=0 / rc=2pass / mbtree=0 / bitrate=2796 / ratetol=1.0 / qcomp=0.60 / qpmin=0 / qpmax=51 / qpstep=4 / cplxblur=20.0 / qblur=0.5 / ip_ratio=1.40 / pb_ratio=1.30 / aq=1:0.90
Язык : English
Default : Нет
Forced : Нет

Аудио
Идентификатор : 2
Формат : AC-3
Формат/Информация : Audio Coding 3
Расширение режима : CM (complete main)
Идентификатор кодека : A_AC3
Продолжительность : 1 ч. 36 м.
Вид битрейта : Постоянный
Битрейт : 448 Кбит/сек
Каналы : 6 каналов
Расположение каналов : Front: L C R, Side: L R, LFE
Частота : 48,0 КГц
Битовая глубина : 16 бит
Метод сжатия : С потерями
Размер потока : 308 Мбайт (14%)
Заголовок : AC3 6ch @ 448 kbps
Язык : Russian
Default : Да
Forced : Нет

Меню
00:00:00.000 : :00:00:00.000
00:12:34.754 : :00:12:34.754
00:20:29.562 : :00:20:29.562
00:26:55.823 : :00:26:55.823
00:34:21.851 : :00:34:21.851
00:39:25.905 : :00:39:25.905
00:44:19.198 : :00:44:19.198
00:50:27.858 : :00:50:27.858
00:55:28.367 : :00:55:28.367
01:07:08.650 : :01:07:08.650
01:11:37.418 : :01:11:37.418
01:17:02.868 : :01:17:02.868
01:20:46.925 : :01:20:46.925
01:24:41.118 : :01:24:41.118
01:27:56.146 : :01:27:56.146
01:33:03.286 : :01:33:03.286





ca3b826465146f0d71a8880680700dff72952bcbДевчата (Юрий Чулюкин, мелодрама, комедия, 1961) [BDRip - AVC, Не требуется] Девчата (Юрий Чулюкин, мелодрама, комедия, 1961) [BDRip - AVC, Не требуется] " />

Аплоадер: Админ, дата: 18-06-2012, 11:33, торрент скачан: 359 раз

Понравилась раздача? Посмотрите эти:
  • Интимные места (Наталья Меркулова, Алексей Чупов, драма, мелодрама, 2013) [ ...
  • Даю год / I Give It a Year (Дэн Мазер, мелодрама, комедия, 2012) [BDRip-AVC ...
  • 21 и больше / 21 & Over (Джон Лукас, Скотт Мур, Комедия, 2013) [BDRip-AVC, ...
  • Пес Барбос и необычный кросс / Самогонщики / «Сто грамм» для храбрости (Лео ...
  • Холостячки / Bachelorette (Лесли Хэдланд, комедия, мелодрама, 2012) [BDRip- ...
  • Толстяк на ринге / Here Comes the Boom (Фрэнк Корачи, Боевик, комедия, 2012 ...
  • Начинающие / Beginners (Майк Миллс / Mike Mills, драма, мелодрама, комедия, ...
  • Главное - не бояться! / A Little Bit of Heaven (Николь Кэссел / Nicole Kass ...
  • Переростки / The Inbetweeners (Бен Палмер, Комедия, 2011) [BDRip-AVC, Профе ...
  • Бедная богатая девочка / Young Adult (Джейсон Райтман, драма, комедия, 2011 ...
  • Проект X: Дорвались / Project X (Нима Нуризаде, комедия, 2012) [BDRip - AVC ...
  • Весна на Заречной улице (Феликс Миронер, Марлен Хуциев, мелодрама, 1956) [B ...
  • Приходите завтра (Евгений Ташков, мелодрама, комедия, 1963) [BDRip - AVC, Н ...
  • 1812: Уланская баллада (Олег Фесенко, Приключения, 2012) [BDRip-AVC, Не тре ...
  • Скрат: Потерянный орех / Scrat: Gone Nutty (Карлос Салдана, короткометражка ...
  • Маугли (Роман Давыдов, мультфильм, приключения, семейный, 1973) [BDRip 720p ...
  • Девчата (Юрий Чулюкин, мелодрама, комедия, 1961) [BDRip 720p, Не требуется] ...
  • Девчата (Юрий Чулюкин, мелодрама, комедия, 1961) [BDRip 1080, Оригинал (не ...
  • Лоракс: Серенада / The Lorax: Serenade (Кайл Балда, мультфильм, комедия, му ...
  • Девчата (Юрий Чулюкин, комедия, мелодрама, 1961) [полная реставрация от &qu ...
  • Девчата (Юрий Чулюкин/ Комедия/ 1961) [DVDRip-AVC, Реставрация, Оригинал (р ...
  • Девчата (Юрий Чулюкин, Комедия, Мелодрама, 1961) [DVDRip - AVC, Не требуетс ...
  • Девчата (Юрий Чулюкин, мелодрама, комедия, 1961) [BDRip, Не требуется]
  • Девчата (Юрий Чулюкин, Мелодрама, комедия, 1961) [BDRip, Не требуется]
  • Девчата (Юрий Чулюкин, мелодрама, комедия, 1961) [Blu-ray Disc, Оригинал ( ...
  • Информация
    Посетители, находящиеся в группе Гости, не могут оставлять комментарии к данной публикации.