вход на сайт

Имя пользователя :
Пароль :

Восстановление пароля Регистрация
Шелковица / Молодость. Выпуск 2 (Геннадий Мелконян, Андрей Ермаш, Автандил Квирикашвили, комедия, короткометражный, 1980) [DVDRip, Не требуется]
Рейтинг:
(голосов: 1)



[img]{THEME}/images/logopost.png[/img]



Шелковица / Молодость. Выпуск 2

Год выпуска: 1980
Страна: Армения
Производство: Арменфильм, ЭМТО
Жанр: фантастика, комедия, короткометражный

Режиссёр: Геннадий Мелконян, Андрей Ермаш, Автандил Квирикашвили
В ролях: Размик Ароян, Леонард Саркисов, Тамара Оганесян, Элеонора Петросян

Перевод: Не требуется
Субтитры: Отсутствуют

Описание:
Две многодетные семьи живут по соседству. Объединяет и одновременно разделяет их большое тутовое дерево - источник их общих радостей и неурядиц…


Дополнительно:
MediaInfo ▼Text
Общее
Полное имя :J:Кинокопилка.РуРАЗДАЧАХозяин и слуга 01-99 Шелковица ТЖВЖИКШелковицаSchelkovica_DVDRip.avi
Формат :AVI
Размер :304 MiB
Продолжительность :00:17:43.400
Общий поток :2 399 Kbps
Программа кодирования :VirtualDubModRus 1.5.10.2 (build 2542/release)
Библиотека кодирования :VirtualDubMod build 2542/release

Видео
Идентификатор :0
Формат :MPEG-4 Visual
Параметр BVOP формата :1
Параметр Qpel формата :No
Параметр GMC формата :0
Параметр Matrix формата :Default (H.263)
Идентификатор кодека :DX50
Продолжительность :17mn 43s 400ms
Битрейт :2 165 Kbps
Ширина :704 pixels
Высота :528 pixels
Соотношение сторон :1.333
Частота кадров :25.000 fps
Глубина цвета :8 bits
Подвыборка цветности :4:2:0
Цветовое пространство :YUV
Тип развертки :Progressive
Бит/(Пиксели*Кадры) :0.233
Размер потока :274 MiB (90%)
Библиотека кодирования :DivX503b2676p

Аудио #1
Идентификатор :1
Формат :AC-3
Формат/Информация :Audio Coding 3
Идентификатор кодека :2000
Продолжительность :00:17:43.360
Вид битрейта :Constant
Битрейт :224 Kbps
Канал(ы) :1 channel
Расположение каналов :Front: C
Частота :48.0 KHz
Битовая глубина :16 bits
Метод сжатия :Lossy
Размер потока :28.4 MiB (9%)Тех. данные:
Качество:DVDRip
Продолжительность:00:17:40 час

Формат: AVI
Видео кодек: Di
7291937114be30af79135f2cd20df8172f296e87Шелковица / Молодость. Выпуск 2 (Геннадий Мелконян, Андрей Ермаш, Автандил Квирикашвили, комедия, короткометражный, 1980) [DVDRip, Не требуется] Шелковица / Молодость. Выпуск 2 (Геннадий Мелконян, Андрей Ермаш, Автандил Квирикашвили, комедия, короткометражный, 1980) [DVDRip, Не требуется] " />

Аплоадер: Админ, дата: 31-05-2012, 01:08, торрент скачан: 359 раз

Понравилась раздача? Посмотрите эти:
  • Нейтральные воды (Владимир Беренштейн, драма, 1968) [DVDRip, Не требуется]
  • Начало (Глеб Панфилов, мелодрама, комедия, 1970) [DVDRip, Не требуется]
  • Гражданин Лёшка (Виктор Крючков, комедия, 1980) [DVDRip, Не требуется]
  • Приключения Толи Клюквина (Виктор Эйсымонт, комедия, семейный, 1964) [DVDRi ...
  • Пакет (Владимир Назаров, комедия, приключения, семейный, 1965) [DVDRip, Не ...
  • Печёнка (Арман Манарян, короткометражка, комедия, 1962) [DVDRip, Не требует ...
  • Мы с вами где-то встречались (Николай Досталь, Андрей Тутышкин, комедия, 19 ...
  • Сватовство гусара (Светлана Дружинина, мюзикл, мелодрама, комедия, 1979) [D ...
  • Царь Иван Грозный (2 части из 2) (Геннадий Васильев, Драма, история, 1991) ...
  • Табачный капитан (Игорь Усов, мюзикл, комедия, история, 1972) [DVDRip, Не т ...
  • Светлая личность (Александр Павловский, мюзикл, комедия, 1989) [DVDRip, Не ...
  • Старухи (Геннадий Сидоров, Драма, 2003) [DVDRip, Не требуется]
  • Старомодная комедия (Эра Савельева, Татьяна Березанцева, мелодрама, 1978) [ ...
  • Похождения Насреддина (Наби Ганиев, комедия, 1946) [DVDRip, Не требуется]
  • Пока бьют часы (Геннадий Васильев, фэнтези, семейный, 1976) [DVDRip, Не тре ...
  • 01-99 (Амаси Мартиросян, короткометражка, комедия, 1959) [DVDRip, Не требуе ...
  • Хозяин и слуга (Дмитрий Кесаянц, короткометражка, комедия, 1963) [DVDRip, Н ...
  • Пощечина (Генрих Малян, драма, мелодрама, комедия, 1980) [DVDRip, Оригинал] ...
  • Взрослые дети (Виллен Азаров, драма, комедия, 1962) [DVDRip, Не требуется] ...
  • К Черному морю (Андрей Тутышкин, мелодрама, комедия, 1957) [DVDRip, Не треб ...
  • Информация
    Посетители, находящиеся в группе Гости, не могут оставлять комментарии к данной публикации.