вход на сайт

Имя пользователя :
Пароль :

Восстановление пароля Регистрация
Печёнка (Арман Манарян, короткометражка, комедия, 1962) [DVDRip, Не требуется]
Рейтинг:
(голосов: 1)



[img]{THEME}/images/logopost.png[/img]



Печёнка / ТЖВЖИК

Год выпуска: 1962
Страна: Армения
Производство: Арменфильм
Жанр: короткометражка, комедия

Режиссёр: Арман Манарян
В ролях: Грачья Нерсесян, Цолак Америкян, Арман Котикян, Григорий Сандалджян, Маргарита Мурадян, Варвара Степанян, Аркадий Тер-Казарян

Перевод: Не требуется
Субтитры: Отсутствуют

Описание:
О том, в какой кошмар вылилась "благотворительность" богача, купившего как-то говяжью печенку для семьи бедняка.


Дополнительно:
MediaInfo ▼Text
Общее
Полное имя :J:Pechenka_DVDRip.avi
Формат :AVI
Размер :350 MiB
Продолжительность :00:20:16.560
Общий поток :2 413 Kbps
Программа кодирования :VirtualDubModRus 1.5.10.2 (build 2542/release)
Библиотека кодирования :VirtualDubMod build 2542/release

Видео
Идентификатор :0
Формат :MPEG-4 Visual
Параметр BVOP формата :1
Параметр Qpel формата :No
Параметр GMC формата :0
Параметр Matrix формата :Default (H.263)
Идентификатор кодека :DX50
Продолжительность :20mn 16s 560ms
Битрейт :2 211 Kbps
Ширина :704 pixels
Высота :528 pixels
Соотношение сторон :1.333
Частота кадров :25.000 fps
Глубина цвета :8 bits
Подвыборка цветности :4:2:0
Цветовое пространство :YUV
Тип развертки :Progressive
Бит/(Пиксели*Кадры) :0.238
Размер потока :321 MiB (92%)
Библиотека кодирования :DivX503b2676p

Аудио #1
Идентификатор :1
Формат :AC-3
Формат/Информация :Audio Coding 3
Идентификатор кодека :2000
Продолжительность :00:20:16.448
Вид битрейта :Constant
Битрейт :192 Kbps
Канал(ы) :2 channels
Расположение каналов :Front: L R
Частота :48.0 KHz
Битовая глубина :16 bits
Метод сжатия :Lossy
Размер потока :27.8 MiB (8%)Тех. данные:
Качество:DVDRip
Продолжительность:00:20:10 час

Формат: AVI
Видео кодек: DivX
Аудио кодек: AC3
Видео: 704 x 528 (4:3), 25.000 fps, 2 211 Kbps, 0.238 bit/pixel
Аудио : 48.0 KHz, Audio Coding 3, 2
d0218a6c0aa4245cfca9615b811c169e22d50bc7Печёнка (Арман Манарян, короткометражка, комедия, 1962) [DVDRip, Не требуется] Печёнка (Арман Манарян, короткометражка, комедия, 1962) [DVDRip, Не требуется] " />

Аплоадер: Админ, дата: 31-05-2012, 01:06, торрент скачан: 359 раз

Понравилась раздача? Посмотрите эти:
  • Воздыхатель / Le soupirant (Пьер Этекс, комедия, 1962) [DVDRip, Профессиона ...
  • Дикая собака Динго (Юлий Карасик, драма, 1962) [DVDRip, Не требуется]
  • Где это видано, где это слыхано (Валентин Горлов, короткометражка, комедия, ...
  • Сапоги (Владимир Немоляев, короткометражка, драма, комедия, 1957) [DVDRip, ...
  • Драма (Герман Ливанов, короткометражка, комедия, 1960) [DVDRip, Не требуетс ...
  • Черная чайка (Григорий Колтунов, приключения, 1962) [DVDRip, Не требуется]
  • Рысь выходит на тропу (Агаси Бабаян, комедия, 1983) [DVDRip, Не требуется]
  • Порожний рейс (Владимир Венгеров, драма, 1962) [DVDRip, Не требуется]
  • Пес Барбос и необычный кросс / Самогонщики / «Сто грамм» для храбрости (Лео ...
  • Семь нянек (Ролан Быков, комедия, 1962) [DVDRip, Не требуется]
  • Я, бабушка, Илико и Илларион (Тенгиз Абуладзе, мелодрама, комедия, 1962) [D ...
  • Старомодная комедия (Эра Савельева, Татьяна Березанцева, мелодрама, 1978) [ ...
  • Приехали на конкурс повара (Нерсес Оганесян, комедия, 1977) [DVDRip, Не тре ...
  • Похождения Насреддина (Наби Ганиев, комедия, 1946) [DVDRip, Не требуется]
  • Путешествие на Луну / Le Voyage dans la Lune (Жорж Мельес, короткометражка, ...
  • Деловые люди (полная реставрация) (Леонид Гайдай, комедия, драма, 1962) [DV ...
  • 01-99 (Амаси Мартиросян, короткометражка, комедия, 1959) [DVDRip, Не требуе ...
  • Хозяин и слуга (Дмитрий Кесаянц, короткометражка, комедия, 1963) [DVDRip, Н ...
  • [France] Красный шар / Le ballon rouge (Альбер Ламорис, короткометражка, фэ ...
  • Мы поедем в Дювиль / Nous irons a Deauville (Френсис Риго, комедия, 1962) [ ...
  • Взрослые дети (Виллен Азаров, драма, комедия, 1962) [DVDRip, Не требуется] ...
  • Шофер поневоле (Надежда Кошеверова, комедия, 1958) [DVDRip, Не требуется]
  • Чудак-человек (Владимир Кочетов, комедия, 1962) [DVDRip, Не требуется]
  • Как рождаются тосты (Всеволод Массино, Оскар Герц, Андрей Тутышкин, коротко ...
  • Карьера Димы Горина (Фрунзе Довлатян, Лев Мирский, комедия, 1962) [DVDRip, ...
  • Информация
    Посетители, находящиеся в группе Гости, не могут оставлять комментарии к данной публикации.