вход на сайт

Имя пользователя :
Пароль :

Восстановление пароля Регистрация
Кадкина всякий знает (Анатолий Вехотко, Наталья Трощенко, мелодрама, 1976) [DVDRip, Не требуется]
Рейтинг:
(голосов: 1)



[img]{THEME}/images/logopost.png[/img]



Кадкина всякий знает

Год выпуска: 1976
Страна: СССР
Производство: Ленфильм
Жанр: мелодрама

Режиссёр: Анатолий Вехотко, Наталья Трощенко
В ролях: Георгий Бурков, Людмила Зайцева, Елена Фетисенко, Майя Булгакова, Борис Новиков, Степан Крылов, Варвара Каргашева, Юрий Дубровин, Иван Шарин, Вера Липсток

Перевод: Не требуется
Субтитры: Отсутствуют

Описание:
После войны возвращается домой Кузьма Кадкин — живой, здоровый, но не один, а с ребенком. Растерянно объявляет он, что на последнем перегоне отстала от поезда мать младенца. Никто не верит Кадкину — ни односельчане, ни собственные дети. Но меньше всех, конечно, жена…


Дополнительно:
MediaInfo ▼Text
Общее
Полное имя :L:Кадкина всякий знаетKadkina vsjakiy znaet.avi
Формат :AVI
Размер :699 MiB
Продолжительность :01:14:57.600
Общий поток :1 304 Kbps
Программа кодирования :VirtualDubMod 1.5.10.1 (build 2439/release)
Библиотека кодирования :VirtualDubMod build 2439/release

Видео
Идентификатор :0
Формат :MPEG-4 Visual
Параметр BVOP формата :No
Параметр Qpel формата :No
Параметр GMC формата :0
Параметр Matrix формата :Default (H.263)
Идентификатор кодека :DX50
Продолжительность :1h 14mn 57s 600ms
Битрейт :1 166 Kbps
Ширина :640 pixels
Высота :352 pixels
Соотношение сторон :1.818
Частота кадров :25.000 fps
Глубина цвета :8 bits
Подвыборка цветности :4:2:0
Цветовое пространство :YUV
Тип развертки :Progressive
Бит/(Пиксели*Кадры) :0.207
Размер потока :625 MiB (89%)
Библиотека кодирования :DivX503b1328

Аудио #1
Идентификатор :1
Формат :MPEG Audio
Идентификатор кодека :55
Продолжительность :01:14:57.527
Вид битрейта :Constant
Битрейт :128 Kbps
Канал(ы) :2 channels
Частота :48.0 KHz
Метод сжатия :Lossy
Размер потока :68.6 MiB (10%)



Тех. данные:
Качество:DVDRip
Продолжительность:01:14:50 час

Формат: AVI
Видео кодек: DivX
Аудио кодек: MPA1L3
Видео: 640 x 352 (16:9), 25.000 fps, 1 166 Kbps, 0.207 bit/pixel
Аудио : 48.0 KHz, , 2 channels ()
d3a4400eef6ce670f1e81fcb83165981733e3bd9Кадкина всякий знает (Анатолий Вехотко, Наталья Трощенко, мелодрама, 1976) [DVDRip, Не требуется] Кадкина всякий знает (Анатолий Вехотко, Наталья Трощенко, мелодрама, 1976) [DVDRip, Не требуется] " />

Аплоадер: Админ, дата: 20-02-2013, 22:11, торрент скачан: 359 раз

Понравилась раздача? Посмотрите эти:
  • Василий и Василиса (Ирина Поплавская, драма, мелодрама, биография, 1981) [D ...
  • Подранки (Николай Губенко, драма, 1976) [DVDRip, Не требуется]
  • Неоконченная пьеса для механического пианино (Никита Михалков, драма, 1976) ...
  • Дневной поезд (Инесса Селезнева, драма, 1976) [DVDRip, Не требуется]
  • Старшина (Николай Кошелев, драма, 1979) [DVDRip, Не требуется]
  • Деревня Утка (Борис Бунеев, семейный, 1976) [DVDRip, Не требуется]
  • Дамы и гусары (Анатолий Ниточкин, Александра Ремизова, комедия, 1976) [DVDR ...
  • Мама (Элизабета Бостан, мюзикл, фэнтези, семейный, 1976) [DVDRip, Не требуе ...
  • Сватовство гусара (Светлана Дружинина, мюзикл, мелодрама, комедия, 1979) [D ...
  • Табор уходит в небо (Эмиль Лотяну, мюзикл, драма, мелодрама, 1976) [DVDRip, ...
  • Я вас любил... (Илья Фрэз, мелодрама, комедия, 1967) [DVDRip, Не требуется] ...
  • Самый красивый конь (Степан Пучинян, мелодрама, 1976) [DVDRip, Не требуется ...
  • У меня есть лев (2 части из 2) (Константин Бромберг, драма, комедия, приклю ...
  • Степанова памятка (Константин Ершов, фэнтези, 1976) [DVDRip, Не требуется]
  • Умные вещи (2 части из 2) (Анатолий Граник, детский, семейный, 1973) [DVDRi ...
  • В лесах под Ковелем (3 части из 3) (Юрий Тупицкий, военный, история, 1984) ...
  • Кадкина всякий знает (Анатолий Вехотко, Наталья Трощенко, мелодрама, 1976) ...
  • Шумный день (Анатолий Эфрос, Георгий Натансон, мелодрама, комедия, 1960) [D ...
  • Два капитана (Владимир Венгеров, приключения, 1955) [ТVRip, Не требуется]
  • Возвращение Василия Бортникова (Всеволод Пудовкин, драма, 1953) [DVDRip, Не ...
  • Информация
    Посетители, находящиеся в группе Гости, не могут оставлять комментарии к данной публикации.