вход на сайт

Имя пользователя :
Пароль :

Восстановление пароля Регистрация
Казаки-разбойники (Валентин Козачков, детский, приключения, 1979) [DVDRip, Не требуется]
Рейтинг:
(голосов: 1)



[img]{THEME}/images/logopost.png[/img]



Казаки-разбойники

Год выпуска: 1979
Страна: СССР
Производство: Одесская киностудия
Жанр: детский, приключения

Режиссёр: Валентин Козачков
В ролях: Валентин Букин, Георгий Дрозд, Олег Корчиков, Лидия Королева, Степан Крылов, Петр Куприянец, Руслан Михневич, Сергей Михневич, Алексей Мишин, Татьяна Наумова

Перевод: Не требуется
Субтитры: Отсутствуют

Описание:
Мальчишки есть мальчишки… Их всегда влекут к себе тайна и риск. Их игры иногда настолько тесно вплетаются в реальную жизнь, что перестают быть безопасными. Но разве смогли бы они помочь выследить и обезвредить банду преступников, если бы были иными по натуре? И если бы с ними не было удивительной девченки — повелительницы всех окрестных собак…


Дополнительно:
MediaInfo ▼Text
Общее
Полное имя :D:Казаки-разбойникиKazaki razboyniki.DVDRip.avi
Формат :AVI
Размер :1.09 GiB
Продолжительность :01:02:10.560
Общий поток :2 516 Kbps
Программа кодирования :FairUse Wizard - http://fairusewizard.com

Видео
Идентификатор :0
Формат :MPEG-4 Visual
Профиль формата :Advanced [email protected]
Параметр BVOP формата :1
Параметр Qpel формата :No
Параметр GMC формата :0
Параметр Matrix формата :Custom
Идентификатор кодека :XVID
Продолжительность :1h 2mn 10s 560ms
Битрейт :2 378 Kbps
Ширина :624 pixels
Высота :480 pixels
Соотношение сторон :1.300
Частота кадров :25.000 fps
Глубина цвета :8 bits
Подвыборка цветности :4:2:0
Цветовое пространство :YUV
Тип развертки :Progressive
Бит/(Пиксели*Кадры) :0.318
Размер потока :1.03 GiB (95%)
Библиотека кодирования :XviD0065

Аудио #1
Идентификатор :1
Формат :MPEG Audio
Идентификатор кодека :55
Продолжительность :01:02:10.320
Вид битрейта :Constant
Битрейт :128 Kbps
Канал(ы) :2 channels
Частота :48.0 KHz
Метод сжатия :Lossy
Размер потока :56.9 MiB (5%)



Тех. данные:
Качество:DVDRip
Продолжительность:01:02:10 час

Формат: AVI
Видео кодек: XviD
Аудио кодек: MPA1L3
Видео: 624 x 480 (1.300), 25.00
0368d49da49ccd6fcf5ace4a538d573adbdd2d92Казаки-разбойники (Валентин Козачков, детский, приключения, 1979) [DVDRip, Не требуется] Казаки-разбойники (Валентин Козачков, детский, приключения, 1979) [DVDRip, Не требуется] " />

Аплоадер: Админ, дата: 20-02-2013, 22:08, торрент скачан: 359 раз

Понравилась раздача? Посмотрите эти:
  • История кавалера де Грие и Манон Леско (Роман Виктюк, драма, мелодрама, 197 ...
  • Дневной поезд (Инесса Селезнева, драма, 1976) [DVDRip, Не требуется]
  • Где это видано, где это слыхано (Валентин Горлов, короткометражка, комедия, ...
  • Человек идёт за солнцем (Михаил Калик, драма, 1961) [DVDRip, Не требуется]
  • Тайна горного подземелья (Лев Мирский, детский, приключения, 1975) [DVDRip, ...
  • Старшина (Николай Кошелев, драма, 1979) [DVDRip, Не требуется]
  • Таинственная находка (Борис Бунеев, детский, приключения, 1954) [DVDRip, Не ...
  • Первоклассница (Илья Фрэз, детский, 1948) [DVDRip, Не требуется]
  • Завтрак на траве (Николай Александрович, детский, комедия, 1979) [DVDRip, Н ...
  • Если есть паруса (Валентин Козачков, драма, 1969) [DVDRip, Не требуется]
  • Осенний марафон (Георгий Данелия, драма, мелодрама, комедия, 1979) [DVDRip, ...
  • Фантазеры (Исаак Магитон, И. Сафарова, детский, 1965) [DVDRip, Не требуется ...
  • "Тигры" на льду (Валентин Козачков, Альберт Осипов, детский, комедия, спорт ...
  • Пустыня (Михаил Кац, драма, 1991) [TVRip, Не требуется]
  • Казаки-разбойники (Валентин Козачков, детский, приключения, 1979) [DVDRip, ...
  • Мы с Вулканом (Валентин Перов, детский, семейный, 1973) [TVRip, Не требуетс ...
  • Четвертый перископ (Виктор Эйсымонт, приключения, 1942) [DVDRip, Не требует ...
  • Соловей (Надежда Кошеверова, мюзикл, семейный, 1979) [DVDRip, Не требуется] ...
  • Старики-разбойники (Эльдар Рязанов, комедия, 1971) [DVDRip, Не требуется]
  • Суета сует (Алла Сурикова, комедия, 1979) [DVDRip, Не требуется]
  • Приключения маленького папы (Дмитрий Крупко, детский, комедия, 1979) [DVDRi ...
  • Солдатки (Валентин Козачков, драма, 1977) [DVDRip, Не требуется]
  • Умные вещи (2 части из 2) (Анатолий Граник, детский, семейный, 1973) [DVDRi ...
  • Дикое поле (Николай Гусаров, боевик, 1991) [DVDRip, Не требуется]
  • Добряки (Карен Шахназаров, комедия, 1979) [DVDRip, Не требуется]
  • Информация
    Посетители, находящиеся в группе Гости, не могут оставлять комментарии к данной публикации.