вход на сайт

Имя пользователя :
Пароль :

Восстановление пароля Регистрация
Какие наши годы! (Эльёр Ишмухамедов, драма, 1980) [DVDRip, Не требуется]
Рейтинг:
(голосов: 1)



[img]{THEME}/images/logopost.png[/img]



Какие наши годы!

Год выпуска: 1980
Страна: СССР
Производство: Узбекфильм
Жанр: драма

Режиссёр: Эльёр Ишмухамедов
В ролях: Рустам Сагдуллаев, Елена Цыплакова, Елена Проклова, Лембит Ульфсак, Леонид Броневой, Светлана Петросьянц, Сайрам Исаева, Ровшан Агзамов, А. Ползухин, Александрс Петуховс

Перевод: Не требуется
Субтитры: Отсутствуют

Описание:
Два закадычных приятеля Таш и Назар работают шоферами на дальних рейсах. Они молоды, и им кажется, что впереди у них целая жизнь, полная достижений и удач. Но очень скоро каждый из них понимает, что везение не всегда делает человека счастливым.


Дополнительно:
MediaInfo ▼Text
Общее
Полное имя :J:Какие наши годы!Kakie naschi gody.avi
Формат :AVI
Размер :1.09 GiB
Продолжительность :01:13:54.840
Общий поток :2 117 Kbps
Программа кодирования :VirtualDubModRus 1.5.10.2 (build 2542/release)
Библиотека кодирования :VirtualDubMod build 2542/release

Видео
Идентификатор :0
Формат :MPEG-4 Visual
Профиль формата :Advanced [email protected]
Параметр BVOP формата :2
Параметр Qpel формата :No
Параметр GMC формата :0
Параметр Matrix формата :Default (H.263)
Идентификатор кодека :XVID
Продолжительность :1h 13mn 54s 840ms
Битрейт :1 915 Kbps
Ширина :704 pixels
Высота :368 pixels
Соотношение сторон :1.913
Частота кадров :25.000 fps
Глубина цвета :8 bits
Подвыборка цветности :4:2:0
Цветовое пространство :YUV
Тип развертки :Progressive
Бит/(Пиксели*Кадры) :0.296
Размер потока :1 012 MiB (90%)
Библиотека кодирования :XviD0063

Аудио #1
Идентификатор :1
Формат :MPEG Audio
Идентификатор кодека :55
Продолжительность :01:13:54.696
Вид битрейта :Constant
Битрейт :192 Kbps
Канал(ы) :2 channels
Частота :48.0 KHz
Метод сжатия :Lossy
Размер потока :102 MiB (9%)



Тех. данные:
Качество:DVDRip
Продолжительность:01:13:50 час

Формат: AVI
Видео кодек: XviD
Аудио кодек: MPA1L3
Видео: 704 x 368 (1.913), 25.000 fps, 1 915 Kbps, 0.296
faa9cb27bf497f4a5ba08b2a96ac39374e310d2aКакие наши годы! (Эльёр Ишмухамедов, драма, 1980) [DVDRip, Не требуется] Какие наши годы! (Эльёр Ишмухамедов, драма, 1980) [DVDRip, Не требуется] " />

Аплоадер: Админ, дата: 20-02-2013, 21:58, торрент скачан: 359 раз

Понравилась раздача? Посмотрите эти:
  • На подмостках сцены (Константин Юдин, драма, комедия, 1956) [DVDRip, Не тре ...
  • Человек, которому везло (Константин Ершов, драма, 1978) [DVDRip, Не требует ...
  • Нейтральные воды (Владимир Беренштейн, драма, 1968) [DVDRip, Не требуется]
  • Мы и наши горы (Генрих Малян, драма, комедия, 1969) [DVDRip, Профессиональн ...
  • Из жизни отдыхающих (Николай Губенко, драма, мелодрама, 1980) [DVDRip, Не т ...
  • Дама с собачкой (Иосиф Хейфиц, драма, мелодрама, 1959) [DVDRip, Не требуетс ...
  • Вы чье, старичье? (Иосиф Хейфиц, драма, 1988) [DVDRip, Не требуется]
  • Выстрел (Наум Трахтенберг, драма, 1966) [DVDRip, Не требуется]
  • Гражданин Лёшка (Виктор Крючков, комедия, 1980) [DVDRip, Не требуется]
  • Убийство на улице Данте (Михаил Ромм, драма, 1956) [DVDRip, Не требуется]
  • Бабье царство (Алексей Салтыков, драма, 1967) [DVDRip, Не требуется]
  • Егерь (Герман Ливанов, драма, экранизация, 1960) [DVDRip, Не требуется]
  • Оптимистическая трагедия (Самсон Самсонов, драма, военный, история, 1963) [ ...
  • Лес (Владимир Мотыль, драма, 1980) [DVDRip, Не требуется]
  • Комиссар (Александр Аскольдов, драма, военный, 1967) [DVDRip, Не требуется] ...
  • Какие наши годы! (Эльёр Ишмухамедов, Драма, 1980) [TVRip, Оригинал]
  • Шелковица / Молодость. Выпуск 2 (Геннадий Мелконян, Андрей Ермаш, Автандил ...
  • Ты и я (Лариса Шепитько, драма, 1971) [DVDRip, Не требуется]
  • Чайка (Юлий Карасик, драма, 1972) [DVDRip, Не требуется]
  • Сотрудник ЧК (Борис Волчек, боевик, история, 1963) [DVDRip, Не требуется]
  • Сибириада (4 части из 4) (Андрей Кончаловский, драма, военный, история, 197 ...
  • Юность Петра (Сергей Герасимов, драма, биография, 1980) [DVDRip, Не требует ...
  • Дядюшкин сон (2 части из2) (Александр Орлов, драма, комедия, 1981) [DVDRip, ...
  • Мексиканец (Владимир Каплуновский, драма, 1955) [DVDRip, Не требуется]
  • За облаками – небо (Юрий Егоров, драма, 1973) [DVDRip, Не требуется]
  • Информация
    Посетители, находящиеся в группе Гости, не могут оставлять комментарии к данной публикации.