вход на сайт

Имя пользователя :
Пароль :

Восстановление пароля Регистрация
Капитанская дочка (Владимир Каплуновский, драма, 1958) [DVDRip, Не требуется]
Рейтинг:
(голосов: 1)



[img]{THEME}/images/logopost.png[/img]



Капитанская дочка

Год выпуска: 1958
Страна: СССР
Производство: Мосфильм
Жанр: драма

Режиссёр: Владимир Каплуновский
В ролях: Ия Арепина, Олег Стриженов, Владимир Дорофеев, Сергей Лукьянов, Варвара Мясникова, Вячеслав Шалевич, Анатолий Шишков, Ирина Зарубина, Лев Золотухин, Николай Юдин

Перевод: Не требуется
Субтитры: Отсутствуют

Описание:
Фильм по мотивам повести А. С. Пушкина.


Дополнительно:
MediaInfo ▼Text
Общее
Полное имя :J:Капитанская дочкаКапитанская дочка.avi
Формат :AVI
Размер :1.59 GiB
Продолжительность :01:39:58.440
Общий поток :2 280 Kbps
Программа кодирования :VirtualDubMod 1.5.10.2 (build 2540/release)
Библиотека кодирования :VirtualDubMod build 2540/release

Видео
Идентификатор :0
Формат :MPEG-4 Visual
Профиль формата :Advanced [email protected]
Параметр BVOP формата :2
Параметр Qpel формата :No
Параметр GMC формата :0
Параметр Matrix формата :Default (H.263)
Идентификатор кодека :XVID
Продолжительность :1h 39mn 58s 440ms
Битрейт :2 142 Kbps
Ширина :720 pixels
Высота :328 pixels
Соотношение сторон :2.195
Частота кадров :25.000 fps
Глубина цвета :8 bits
Подвыборка цветности :4:2:0
Цветовое пространство :YUV
Тип развертки :Progressive
Бит/(Пиксели*Кадры) :0.363
Размер потока :1.50 GiB (94%)
Библиотека кодирования :XviD0047

Аудио #1
Идентификатор :1
Формат :MPEG Audio
Идентификатор кодека :55
Продолжительность :01:39:58.440
Вид битрейта :Constant
Битрейт :128 Kbps
Канал(ы) :2 channels
Частота :48.0 KHz
Метод сжатия :Lossy
Размер потока :91.5 MiB (6%)



Тех. данные:
Качество:DVDRip
Продолжительность:01:39:50 час

Формат: AVI
Видео кодек: XviD
Аудио кодек: MPA1L3
Видео: 720 x 328 (2.2:1), 25.000 fps, 2 142 Kbps, 0.363 bit/pixel
Аудио : 48.0 KHz, , 2 channels (), 128 Kbps



92d6279725b52a12336b4ed1c8e58bcf6323a979Капитанская дочка (Владимир Каплуновский, драма, 1958) [DVDRip, Не требуется] Капитанская дочка (Владимир Каплуновский, драма, 1958) [DVDRip, Не требуется] " />

Аплоадер: Админ, дата: 20-02-2013, 21:52, торрент скачан: 359 раз

Понравилась раздача? Посмотрите эти:
  • Дружок (Виктор Эйсымонт, семейный, 1958) [DVDRip, Не требуется]
  • Нейтральные воды (Владимир Беренштейн, драма, 1968) [DVDRip, Не требуется]
  • Зимородок (Вячеслав Никифоров, военный, 1972) [DVDRip, Не требуется]
  • Сегодня увольнения не будет (Александр Гордон, Андрей Тарковский, короткоме ...
  • Неподсуден (Владимир Краснопольский, Валерий Усков, драма, 1969) [DVDRip, Н ...
  • Лес (Владимир Мотыль, драма, 1980) [DVDRip, Не требуется]
  • Левша (Сергей Овчаров, драма, комедия, 1986) [DVDRip, Не требуется]
  • Пиковая Дама (Роман Тихомиров, мюзикл, драма, 1961) [DVDRip, Не требуется]
  • Чудный характер (Константин Воинов, драма, 1970) [DVDRip, Не требуется]
  • Печники (Виктор Храмов, драма, 1982) [DVDRip, Не требуется]
  • Степь (2 части из 2) (Сергей Бондарчук, драма, история, 1977) [DVDRip, Не т ...
  • Прощайте, фараоны! (Давид Черкасский, Вячеслав Винник, комедия, 1974) [DVDR ...
  • Оглашению не подлежит (Хасан Бакаев, драма, 1987) [TVRip, Не требуется]
  • Пуск торпеды / Torpedo Run (Джозеф Пивни, драма, военный, 1958) [DVDRip, Ав ...
  • Любовники / Les amants (Луи Малль, драма, 1958) [DVDRip, Профессиональный ( ...
  • Шофер поневоле (Надежда Кошеверова, комедия, 1958) [DVDRip, Не требуется]
  • Голубая стрела (Леонид Эстрин, боевик, 1958) [DVDRip, Не требуется]
  • Кутузов (Владимир Петров, драма, 1943) [DVDRip, Не требуется]
  • Мексиканец (Владимир Каплуновский, драма, 1955) [DVDRip, Не требуется]
  • Ведьма (Александр Абрамов, короткометражка, драма, 1958) [TVRip, Не требует ...
  • Информация
    Посетители, находящиеся в группе Гости, не могут оставлять комментарии к данной публикации.