вход на сайт

Имя пользователя :
Пароль :

Восстановление пароля Регистрация
Карнавал (2 части из 2) (Татьяна Лиознова, мюзикл, комедия, 1981) [DVDRip, Не требуется]
Рейтинг:
(голосов: 1)



[img]{THEME}/images/logopost.png[/img]



Карнавал (2 части из 2)

Год выпуска: 1981
Страна: Россия
Производство: Студия Горького
Жанр: мюзикл, комедия

Режиссёр: Татьяна Лиознова
В ролях: Ирина Муравьёва, Юрий Яковлев, Клара Лучко, Александр Абдулов, Вера Васильева, Алевтина Румянцева, Екатерина Жемчужная, Борис Морозов, Александр Михайлов, Лидия Смирнова

Перевод: Не требуется
Субтитры: Отсутствуют

Описание:
Героиня фильма — провинциальная девчонка, мечтающая `выучиться на артистку`. Попав в столицу, она быстро расстается с романтическим представлением о жизни как сплошном празднике — зато начинает понимать, что в мире действительно стоит ценить и что вовсе не имеет цены…


Дополнительно:
MediaInfo ▼Text
"1 часть" ▼Общее
Полное имя :K:КарнавалKarnaval1.avi
Формат :AVI
Размер :1.12 GiB
Продолжительность :01:13:55.608
Общий поток :2 163 Kbps
Программа кодирования :VirtualDubModRus 1.5.10.2 (build 2542/release)
Библиотека кодирования :VirtualDubMod build 2542/release

Видео
Идентификатор :0
Формат :MPEG-4 Visual
Параметр BVOP формата :1
Параметр Qpel формата :No
Параметр GMC формата :0
Параметр Matrix формата :Default (H.263)
Идентификатор кодека :DX50
Продолжительность :1h 13mn 55s 600ms
Битрейт :1 961 Kbps
Ширина :688 pixels
Высота :512 pixels
Соотношение сторон :1.344
Частота кадров :25.000 fps
Глубина цвета :8 bits
Подвыборка цветности :4:2:0
Цветовое пространство :YUV
Тип развертки :Progressive
Бит/(Пиксели*Кадры) :0.223
Размер потока :1.01 GiB (91%)
Библиотека кодирования :DivX503b2676p

Аудио #1
Идентификатор :1
Формат :MPEG Audio
Идентификатор кодека :55
Продолжительность :01:13:55.608
Вид битрейта :Constant
Битрейт :192 Kbps
Канал(ы) :2 channels
Частота :48.0 KHz
Метод сжатия :Lossy
Размер потока :102 MiB (9%)

"2 часть" ▼Общее
Полное имя :K:КарнавалKarnaval2.avi
Формат :AVI
Размер
239c1a4e5dc9d82d692bcf989bf87284483dd4d9Карнавал (2 части из 2) (Татьяна Лиознова, мюзикл, комедия, 1981) [DVDRip, Не требуется] Карнавал (2 части из 2) (Татьяна Лиознова, мюзикл, комедия, 1981) [DVDRip, Не требуется] " />

Аплоадер: Админ, дата: 20-02-2013, 21:48, торрент скачан: 359 раз

Понравилась раздача? Посмотрите эти:
  • Дни хирурга Мишкина (3 части из 3) (Вадим Зобин, драма, 1967) [DVDRip, Не т ...
  • Биндюжник и король (2 части из 2) (Владимир Алеников, мюзикл, драма, комеди ...
  • Мир дому твоему (2 части из 2) (Константин Райкин, Аркадий Райкин, Марк Орл ...
  • Люди и манекены (4 части из 4) (Виктор Храмов, Аркадий Райкин, комедия, 197 ...
  • Евдокия (Полная реставрация) (Татьяна Лиознова, драма, 1961) [DVDRip, Не тр ...
  • Дон Сезар де Базан (2 части из 2) (Ян Фрид, мюзикл, комедия, 1989) [DVDRip, ...
  • Покровские ворота (2 части из 2) (Михаил Козаков, мюзикл, драма, мелодрама, ...
  • Энергичные люди (2 части из 2) (Владимир Захаров, комедия, 1988) [DVDRip, Н ...
  • Степь (2 части из 2) (Сергей Бондарчук, драма, история, 1977) [DVDRip, Не т ...
  • Трест, который лопнул (3 части из 3) (Александр Павловский, мюзикл, комедия ...
  • Сильва (2 части из 2) (Ян Фрид, мюзикл, комедия, 1981) [DVDRip, Не требуетс ...
  • Ханума (2 части из 2) (Георгий Товстоногов, мюзикл, комедия, 1978) [DVDRip, ...
  • Приморский бульвар (2 части из 2) (Александр Полынников, мюзикл, комедия, 1 ...
  • Проданный смех (2 части из 2) (Леонид Нечаев, мюзикл, фэнтези, приключения, ...
  • Тихий Дон (3 части из 3) (Сергей Герасимов, драма, военный, 1957) [DVDRip, ...
  • Подпольный обком действует (4 части из 4) (Анатолий Буковский, военный, 197 ...
  • В лесах под Ковелем (3 части из 3) (Юрий Тупицкий, военный, история, 1984) ...
  • Карнавал (Татьяна Лиознова, Комедия, мюзикл, 1981) [DVDRip, Оригинал]
  • Гений (2 части из 2) (Виктор Сергеев, Комедия, криминал, 1991) [DVDRip, Не ...
  • Дядюшкин сон (2 части из2) (Александр Орлов, драма, комедия, 1981) [DVDRip, ...
  • Информация
    Посетители, находящиеся в группе Гости, не могут оставлять комментарии к данной публикации.