вход на сайт

Имя пользователя :
Пароль :

Восстановление пароля Регистрация
Князь Игорь (Роман Тихомиров, мюзикл, приключения, 1969) [DVDRip, Не требуется]
Рейтинг:
(голосов: 1)



[img]{THEME}/images/logopost.png[/img]



Князь Игорь

Год выпуска: 1969
Страна: СССР
Производство: Ленфильм
Жанр: мюзикл, приключения

Режиссёр: Роман Тихомиров
В ролях: Борис Хмельницкий, Нелли Пшенная, Пётр Меркурьев, Евгений Нестеренко, Александр Сластин, Борис Токарев, Бимболат Ватаев, Инвета Моргоева, Михаил Сидоркин, Мустафа Ахунбаев

Перевод: Не требуется
Субтитры: Отсутствуют

Описание:
Музыкальная драма по одноименной опере Александра Бородина, написанной по мотивам русского эпоса «Слово о полку Игореве».


Дополнительно:
MediaInfo ▼Text
Общее
Полное имя :K:Князь ИгорьKnyaz.Igor.1969.XviD.DVDRip.avi
Формат :AVI
Размер :1.37 GiB
Продолжительность :01:44:44.000
Общий поток :1 871 Kbps
Программа кодирования :VirtualDubMod 1.5.10.2 (build 2540/release)
Библиотека кодирования :VirtualDubMod build 2540/release

Видео
Идентификатор :0
Формат :MPEG-4 Visual
Профиль формата :Advanced [email protected]
Параметр BVOP формата :1
Параметр Qpel формата :No
Параметр GMC формата :0
Параметр Matrix формата :Default (MPEG)
Идентификатор кодека :XVID
Продолжительность :1h 44mn 44s 0ms
Битрейт :1 413 Kbps
Ширина :720 pixels
Высота :304 pixels
Соотношение сторон :2.368
Частота кадров :25.000 fps
Глубина цвета :8 bits
Подвыборка цветности :4:2:0
Цветовое пространство :YUV
Тип развертки :Progressive
Бит/(Пиксели*Кадры) :0.258
Размер потока :1.03 GiB (76%)
Библиотека кодирования :XviD0050

Аудио #1
Идентификатор :1
Формат :AC-3
Формат/Информация :Audio Coding 3
Идентификатор кодека :2000
Продолжительность :01:44:43.968
Вид битрейта :Constant
Битрейт :448 Kbps
Канал(ы) :6 channels
Расположение каналов :Front: L C R, Side: L R, LFE
Частота :48.0 KHz
Битовая глубина :16 bits
Метод сжатия :Lossy
Размер потока :336 MiB (24%)



Тех. данные:
Качество:DVDRip
Продолжительность:01:44:40 час

Формат: AVI
cc9b0a5b8e1e48dfd6c6ce859910c766a960a03fКнязь Игорь (Роман Тихомиров, мюзикл, приключения, 1969) [DVDRip, Не требуется] Князь Игорь (Роман Тихомиров, мюзикл, приключения, 1969) [DVDRip, Не требуется] " />

Аплоадер: Админ, дата: 19-02-2013, 21:36, торрент скачан: 359 раз

Понравилась раздача? Посмотрите эти:
  • Каштанка (Роман Балаян, приключения, 1975) [DVDRip, Не требуется]
  • Воздушный извозчик (Герберт Раппапорт, мюзикл, комедия, 1943) [DVDRip, Не т ...
  • Таинственная находка (Борис Бунеев, детский, приключения, 1954) [DVDRip, Не ...
  • Покровские ворота (2 части из 2) (Михаил Козаков, мюзикл, драма, мелодрама, ...
  • По главной улице с оркестром (Петр Тодоровский, мюзикл, мелодрама, комедия, ...
  • Если есть паруса (Валентин Козачков, драма, 1969) [DVDRip, Не требуется]
  • Неподсуден (Владимир Краснопольский, Валерий Усков, драма, 1969) [DVDRip, Н ...
  • Моя любовь (Владимир Корш-Саблин, мюзикл, мелодрама, комедия, 1940) [DVDRip ...
  • Мама (Элизабета Бостан, мюзикл, фэнтези, семейный, 1976) [DVDRip, Не требуе ...
  • Крепостная актриса (Роман Тихомиров, мюзикл, 1964) [DVDRip, Не требуется]
  • Огонь, вода и ... медные трубы // Золотые рога // Варвара-краса, длинная ко ...
  • Пиковая Дама (Роман Тихомиров, мюзикл, драма, 1961) [DVDRip, Не требуется]
  • Печники (Виктор Храмов, драма, 1982) [DVDRip, Не требуется]
  • Табачный капитан (Игорь Усов, мюзикл, комедия, история, 1972) [DVDRip, Не т ...
  • Соловей (Надежда Кошеверова, мюзикл, семейный, 1979) [DVDRip, Не требуется] ...
  • Сильва (2 части из 2) (Ян Фрид, мюзикл, комедия, 1981) [DVDRip, Не требуетс ...
  • Светлая личность (Александр Павловский, мюзикл, комедия, 1989) [DVDRip, Не ...
  • Шельменко-денщик (Андрей Тутышкин, мюзикл, комедия, 1971) [DVDRip, Не требу ...
  • Приключения маленького Мука (Елизавета Кимягарова, мюзикл, семейный, 1983) ...
  • Хеллоу, Долли! / Hello, Dolly! (Джин Келли, мюзикл, мелодрама, комедия, сем ...
  • Информация
    Посетители, находящиеся в группе Гости, не могут оставлять комментарии к данной публикации.