вход на сайт

Имя пользователя :
Пароль :

Восстановление пароля Регистрация
Князь Удача Андреевич (Геннадий Байсак, комедия, криминал, семейный, 1989) [DVDRip, Не требуется]
Рейтинг:
(голосов: 1)



[img]{THEME}/images/logopost.png[/img]



Князь Удача Андреевич

Год выпуска: 1989
Страна: СССР
Производство: Студия Горького, Ладья
Жанр: комедия, криминал, семейный

Режиссёр: Геннадий Байсак
В ролях: Евгений Пивоваров, Дмитрий Головин, Светлана Крючкова, Виктор Павлов, Армен Джигарханян, Станислав Садальский, Владимир Стеклов, Борис Галкин, Николай Парфёнов, Валерий Баринов

Перевод: Не требуется
Субтитры: Отсутствуют

Описание:
История о школьниках, увлекающихся историей родного города и случайно столкнувшихся с шайкой воров, которые сбывают краденое из музеев антиквариата.


Дополнительно:
MediaInfo ▼Text
Общее
Полное имя :L:Князь Удача АндреевичКнязь Удача Андреевич.avi
Формат :AVI
Размер :690 MiB
Продолжительность :01:15:35.208
Общий поток :1 277 Kbps
Программа кодирования :VirtualDubMod 1.5.4.1 (build 2178/release)VirtualDubMod build 2178/release

Видео
Идентификатор :0
Формат :MPEG-4 Visual
Параметр BVOP формата :1
Параметр Qpel формата :No
Параметр GMC формата :0
Параметр Matrix формата :Default (H.263)
Идентификатор кодека :DX50
Продолжительность :1h 15mn 35s 200ms
Битрейт :1 141 Kbps
Ширина :720 pixels
Высота :448 pixels
Соотношение сторон :1.607
Частота кадров :25.000 fps
Глубина цвета :8 bits
Подвыборка цветности :4:2:0
Цветовое пространство :YUV
Тип развертки :Progressive
Бит/(Пиксели*Кадры) :0.142
Размер потока :617 MiB (89%)
Библиотека кодирования :DivX503b2432p

Аудио #1
Идентификатор :1
Формат :MPEG Audio
Идентификатор кодека :55
Продолжительность :01:15:35.208
Вид битрейта :Constant
Битрейт :128 Kbps
Канал(ы) :2 channels
Частота :48.0 KHz
Метод сжатия :Lossy
Размер потока :69.2 MiB (10%)
Язык :5 / @5 / EnglishТех. данные:
Качество:DVDRip
Продолжительность:01:15:38 час

Формат: AVI
Видео кодек: DivX
Аудио кодек: MPA1L3
Видео: 720 x 448 (1.607), 25.000 fps, 1 141 Kbps, 0.142 bit/pixel
Аудио : 48.0 KHz, , 2 channels (), 128 Kbps


2cbcf7df577c822fe3f5995b89d71aeebec114a0Князь Удача Андреевич (Геннадий Байсак, комедия, криминал, семейный, 1989) [DVDRip, Не требуется] Князь Удача Андреевич (Геннадий Байсак, комедия, криминал, семейный, 1989) [DVDRip, Не требуется] " />

Аплоадер: Админ, дата: 19-02-2013, 21:27, торрент скачан: 359 раз

Понравилась раздача? Посмотрите эти:
  • Дружок (Виктор Эйсымонт, семейный, 1958) [DVDRip, Не требуется]
  • Акваланги на дне (Евгений Шерстобитов, боевик, приключения, семейный, 1965) ...
  • Где это видано, где это слыхано (Валентин Горлов, короткометражка, комедия, ...
  • Чиполлино (Тамара Лисициан, семейный, 1973) [DVDRip, Не требуется]
  • Хозяин тайги (Владимир Назаров, криминал, 1968) [DVDRip, Не требуется]
  • Рыжик (Илья Фрэз, приключения, семейный, 1960) [DVDRip, Не требуется]
  • Приключения Толи Клюквина (Виктор Эйсымонт, комедия, семейный, 1964) [DVDRi ...
  • Пакет (Владимир Назаров, комедия, приключения, семейный, 1965) [DVDRip, Не ...
  • Две стрелы. Детектив каменного века (Алла Сурикова, комедия, криминал, 1989 ...
  • Анискин и Фантомас (2 части из 2) (Михаил Жаров, Владимир Рапопорт, комедия ...
  • Иван да Марья (Борис Рыцарев, фэнтези, мелодрама, комедия, семейный, музыка ...
  • Князь Игорь (Роман Тихомиров, мюзикл, приключения, 1969) [DVDRip, Не требуе ...
  • Трактир на Пятницкой (Александр Файнциммер, криминал, детектив, 1977) [DVDR ...
  • Игра на миллионы (Геннадий Байсак, комедия, криминал, приключения, 1991) [T ...
  • Не имей 100 рублей... (Геннадий Казанский, комедия, 1959) [TVRip, Не требуе ...
  • Небывальщина (Сергей Овчаров, комедия, 1983) [DVDRip, Не требуется]
  • Чудак из пятого «Б» (Илья Фрэз, комедия, семейный, 1972) [DVDRip, Не требуе ...
  • Карусель (Михаил Швейцер, комедия, 1970) [DVDRip, Не требуется]
  • Светлая личность (Александр Павловский, мюзикл, комедия, 1989) [DVDRip, Не ...
  • В. Давыдов и Голиаф // Покушение // Рыпкина любовь (Сборник короткометражны ...
  • Приехали на конкурс повара (Нерсес Оганесян, комедия, 1977) [DVDRip, Не тре ...
  • Снежная королева (Геннадий Казанский, фэнтези, драма, приключения, семейный ...
  • Ученик лекаря (Борис Рыцарев, комедия, семейный, история, 1986) [DVDRip, Не ...
  • Пока бьют часы (Геннадий Васильев, фэнтези, семейный, 1976) [DVDRip, Не тре ...
  • Князь Удача Андреевич (Геннадий Байсак, комедия, семейный, криминал, 1989 г ...
  • Информация
    Посетители, находящиеся в группе Гости, не могут оставлять комментарии к данной публикации.