вход на сайт

Имя пользователя :
Пароль :

Восстановление пароля Регистрация
К черному морю (Андрей Тутышкин, мелодрама, комедия, 1957) [DVDRip, не требуется]
Рейтинг:
(голосов: 1)



[img]{THEME}/images/logopost.png[/img]



К черному морю


Год выпуска: 1957
Страна: СССР
Производство: Мосфильм
Жанр: мелодрама, комедия

Режиссёр: Андрей Тутышкин
В ролях: Изольда Извицкая, Анатолий Кузнецов, Евгений Самойлов, Лидия Федосеева-Шукшина, Евгения Мельникова, Сергей Лукьянов, Евгений Тетерин, Николай Граббе, Вадим Грачев, Георгий Гумилевский, Маргарита Жарова (Иванова), Александр Лебедев, Борис Новиков, Вера Петрова, Леонид Пирогов, Петр Савин, Андрей Тутышкин, Светлана Харитонова, Леонид Чубаров...

Перевод: не требуется
Субтитры:Нет

Описание
Ирина и Николай решают поехать на машине к Черному морю и по дороге отпраздновать свадьбу. Их преследует машина преподавателя Хохлова, который давно любит Ирину. Вскоре к ним присоединяется энергичная девушка. Эту четверку ожидает масса невероятных приключений!..

Доп. информация

Рейтинг MPAA ▼ лицам до 18 лет обязательно присутствие взрослого
Mediainfo ▼TextОбщее
Полное имя : K.Chernomu.morju.1957.DVDRip.avi
Формат : AVI
Формат/Информация : Audio Video Interleave
Размер файла : 744 Мбайт
Продолжительность : 1 ч. 9 м.
Общий поток : 1505 Кбит/сек
Программа кодирования : VirtualDubMod 1.5.10.3 | www.virtualdub-fr.org || (build 2550/release)
Библиотека кодирования : VirtualDubMod build 2550/release

Видео
Идентификатор : 0
Формат : MPEG-4 Visual
Профиль формата : Advanced [email protected]
Параметр BVOP формата : 1
Параметр QPel формата : Нет
Параметр GMC формата : Без точки перехода
Параметр матрицы формата : Выборочная
Идентификатор кодека : XVID
Идентификатор кодека/Подсказка : XviD
Продолжительность : 1 ч. 9 м.
Битрейт : 1367 Кбит/сек
Ширина : 688 пикселей
Высота : 512 пикселей
Соотношение сторон : 4:3
Частота кадров : 25,000 кадров/сек
Цветовое пространство : YUV
Субдискретизация насыщенности : 4:2:0
Битовая глубина : 8 бит
Тип развёртки : Прогрессивная
Метод сжатия : С потерями
Бит/(Пиксели*Кадры) : 0.155
Размер потока : 676 Мбайт (91%)
Библиотека кодирования : XviD 65

Аудио
Идентификатор : 1
Формат : MPEG Audio
Версия формата : Version 1
Профиль формата : Layer 3
Идентификатор кодека : 55
Идентификатор кодека/Подсказка : MP3
Продолжительность : 1 ч. 9 м.
Вид битрейта : Постоянный
Битрейт : 128 Кбит/сек
Каналы : 2 канала
Частота : 48,0 КГц
Метод сжатия : С потерями
Размер потока : 63,3 Мбайт (9%)
Выравнивание : Соединение по промежуткам
Продолжительность промежутка : 40 мс. (1,00 видеокадр)
Время предзагрузки промежутка : 504 мс.
Библиотека кодирования : L3.99r
Настройки программы : -m s -V 4 -q 2 -lowpass 17 -b 128


Тех. данные
Качество: DVDRip | (Исходник: DVD5 R5)
Продолжительность: 01:32:26час.

Формат: AVI
Видео кодек: XviD
Аудио кодек: mp3
Видео: 688x512 (4:3), 25 fps, XviD ~ 1367 kbps avg, 0.155 bit/pixel
Аудио: 48 kHz,MP3 2.0, 128 kbps


|Cтол заказов| Наши раздачи| Набор в группу| Сказать спасибо|


65f7cc4e2df0ed2650e0f19b267e20cd33652b51К черному морю (Андрей Тутышкин, мелодрама, комедия, 1957) [DVDRip, не требуется] К черному морю (Андрей Тутышкин, мелодрама, комедия, 1957) [DVDRip, не требуется] " />

Аплоадер: Админ, дата: 18-02-2013, 22:15, торрент скачан: 359 раз

Понравилась раздача? Посмотрите эти:
  • Околофутбола (Антон Борматов, драма, криминал, 2013) [DVDRip, Не требуется] ...
  • Девушка без адреса (Эльдар Рязанов, мелодрама, комедия, 1957) [DVDRip, Не т ...
  • Высота (Александр Зархи, мелодрама, 1957) [DVDRip, Не требуется]
  • Сапоги (Владимир Немоляев, короткометражка, драма, комедия, 1957) [DVDRip, ...
  • Мы с вами где-то встречались (Николай Досталь, Андрей Тутышкин, комедия, 19 ...
  • Кажется, я люблю свою жену / I Think I Love My Wife (Крис Рок, Драма, мелод ...
  • Темный сахар / Brown Sugar (Рик Фамуйива, Драма, мелодрама, комедия, музыка ...
  • Я тоже хочу (Алексей Балабанов, драма, криминал, 2012) [DVDRip, Не требуетс ...
  • 1812: Уланская баллада (Олег Фесенко, приключения, 2012) [DVDRip, Не требуе ...
  • Бог любви / God of Love (Люк Мэзени, Короткометражка, фэнтези, комедия, мел ...
  • Любовь по расписанию / Поезд (Сергей Мезенцев, мелодрама, 2012) [HDTVRip, Н ...
  • Шельменко-денщик (Андрей Тутышкин, мюзикл, комедия, 1971) [DVDRip, Не требу ...
  • Вечерний Ургант // Сезон 2. Выпуск 63 (ТВ-шоу, 20.12.2012) [SATRip, Не треб ...
  • Дорога на... / Road to (Таисия Игуменцева, Комедия, короткометражный, 2011) ...
  • Покорить высоту / Take It to the Limit (Сэм Кит / Sam Kieth, семейный, 2000 ...
  • Детский душ / Baby Shower (Pablo Illanes, Ужасы, 2011) [DVDRip, Любительски ...
  • Обратный билет (Александр Кананович, Мелодрама, 2012) [SATRip, Не требуется ...
  • Человек из банки (Иван Кульнев, Комедия, 2012) [DVDRip, Не требуется]
  • К Черному морю (Андрей Тутышкин, мелодрама, комедия, 1957) [DVDRip, Не треб ...
  • Как рождаются тосты (Всеволод Массино, Оскар Герц, Андрей Тутышкин, коротко ...
  • Информация
    Посетители, находящиеся в группе Гости, не могут оставлять комментарии к данной публикации.