вход на сайт

Имя пользователя :
Пароль :

Восстановление пароля Регистрация
Комиссар (Александр Аскольдов, драма, военный, 1967) [DVDRip, Не требуется]
Рейтинг:
(голосов: 1)



[img]{THEME}/images/logopost.png[/img]



Комиссар

Год выпуска: 1967
Страна: СССР
Производство: Студия Горького, Мосфильм
Жанр: драма, военный

Режиссёр: Александр Аскольдов
В ролях: Нонна Мордюкова, Ролан Быков, Раиса Недашковская, Людмила Волынская, Василий Шукшин, Любовь Кац, Павел Левин, Дмитрий Клейман, Марта Браткова, Игорь Фишман

Перевод: Не требуется
Субтитры: Отсутствуют

Описание:
В разгар гражданской войны, когда части Красной Армии заняли небольшой южный городок, комиссар Вавилова поселяется в многодетной еврейской семье и рожает ребенка…


Дополнительно:
MediaInfo ▼Text
Общее
Полное имя :J:КомиссарKomissar.avi
Формат :AVI
Размер :1.52 GiB
Продолжительность :01:43:56.600
Общий поток :2 097 Kbps
Программа кодирования :VirtualDubModRus 1.5.10.2 (build 2542/release)
Библиотека кодирования :VirtualDubMod build 2542/release

Видео
Идентификатор :0
Формат :MPEG-4 Visual
Профиль формата :Advanced [email protected]
Параметр BVOP формата :2
Параметр Qpel формата :No
Параметр GMC формата :0
Параметр Matrix формата :Default (MPEG)
Идентификатор кодека :DIVX
Продолжительность :1h 43mn 56s 600ms
Битрейт :1 895 Kbps
Ширина :720 pixels
Высота :304 pixels
Соотношение сторон :2.368
Частота кадров :25.000 fps
Глубина цвета :8 bits
Подвыборка цветности :4:2:0
Цветовое пространство :YUV
Тип развертки :Progressive
Бит/(Пиксели*Кадры) :0.346
Размер потока :1.38 GiB (90%)
Библиотека кодирования :XviD0050

Аудио #1
Идентификатор :1
Формат :AC-3
Формат/Информация :Audio Coding 3
Идентификатор кодека :2000
Продолжительность :01:43:56.184
Вид битрейта :Constant
Битрейт :192 Kbps
Канал(ы) :2 channels
Расположение каналов :Front: L R
Частота :48.0 KHz
Битовая глубина :16 bits
Метод сжатия :Lossy
Размер потока :143 MiB (9%)Тех. данные:
Качество:DVDRip
Продолжительность:01:43:50 час

Формат:
b75505be502c02025e189b840ab405aa92d8777dКомиссар (Александр Аскольдов, драма, военный, 1967) [DVDRip, Не требуется] Комиссар (Александр Аскольдов, драма, военный, 1967) [DVDRip, Не требуется] " />

Аплоадер: Админ, дата: 18-02-2013, 19:49, торрент скачан: 359 раз

Понравилась раздача? Посмотрите эти:
  • Дни хирурга Мишкина (3 части из 3) (Вадим Зобин, драма, 1967) [DVDRip, Не т ...
  • Бой под Соколом (Александр Разумный, военный, 1942) [DVDRip, Не требуется]
  • Анна Каренина (2 части из 2) (Александр Зархи, драма, мелодрама, 1967) [DVD ...
  • Шел четвертый год войны... (Георгий Николаенко, военный, 1983) [DVDRip, Не ...
  • Четвертый (Александр Столпер, драма, 1972) [DVDRip, Не требуется]
  • Путь в "Сатурн" (Виллен Азаров, военный, 1967) [DVDRip, Не требуется]
  • Конец "Сатурна" (Виллен Азаров, Мосфильм, 1967) [DVDRip, Не требуется]
  • Парень из нашего города (Александр Столпер, Борис Иванов, драма, военный, 1 ...
  • Оптимистическая трагедия (Самсон Самсонов, драма, военный, история, 1963) [ ...
  • Повесть о настоящем человеке (Александр Столпер, драма, военный, 1948) [DVD ...
  • Чайка (Юлий Карасик, драма, 1972) [DVDRip, Не требуется]
  • Майская ночь, или Утопленница (Александр Роу, фэнтези, комедия, 1952) [DVDR ...
  • Красная площадь (Василий Ордынский, драма, военный, 1971) [DVDRip, Не требу ...
  • Тихий Дон (3 части из 3) (Сергей Герасимов, драма, военный, 1957) [DVDRip, ...
  • Болотные солдаты (Александр Мачерет, драма, военный, 1938) [DVDRip, Не треб ...
  • Уик-энд / Week End (Жан-Люк Годар, драма, комедия, 1967) [DVDRip, Профессио ...
  • Драгоценный подарок (Александр Роу, семейный, 1956) [DVDRip, Не требуется]
  • Дядюшкин сон (2 части из2) (Александр Орлов, драма, комедия, 1981) [DVDRip, ...
  • Р.В.С. (Алексей Мороз, военный, 1977) [DVDRip, (2х)Оригинал (русский)]
  • Моонзунд (2 части из 2) (Александр Муратов, драма, мелодрама, военный, исто ...
  • Информация
    Посетители, находящиеся в группе Гости, не могут оставлять комментарии к данной публикации.