вход на сайт

Имя пользователя :
Пароль :

Восстановление пароля Регистрация
Левша (Сергей Овчаров, драма, комедия, 1986) [DVDRip, Не требуется]
Рейтинг:
(голосов: 1)



[img]{THEME}/images/logopost.png[/img]



Левша

Год выпуска: 1986
Страна: СССР
Производство: Ленфильм
Жанр: драма, комедия

Режиссёр: Сергей Овчаров
В ролях: Николай Стоцкий, Владимир Гостюхин, Леонид Куравлёв, Юрий Яковлев, Лев Лемке, Николай Лавров, Александр Суснин, Сергей Паршин, Евгений Баранов, Анатолий Худолеев

Перевод: Не требуется
Субтитры: Отсутствуют

Описание:
Когда англичане, желая удивить императора Александра Павловича, подарили заводную чудо-блоху, они и не ведали, в руки какого умельца она попадет на русской земле.


Дополнительно:
MediaInfo ▼Text
Общее
Полное имя :D:ЛевшаLevsha.1986.DVDrip.avi
Формат :AVI
Размер :1.46 GiB
Продолжительность :01:24:38.600
Общий поток :2 467 Kbps
Программа кодирования :VirtualDubMod 1.5.4.1 (build 2178/release)
Библиотека кодирования :VirtualDubMod build 2178/release

Видео
Идентификатор :0
Формат :MPEG-4 Visual
Профиль формата :Advanced [email protected]
Параметр BVOP формата :1
Параметр Qpel формата :No
Параметр GMC формата :0
Параметр Matrix формата :Custom
Идентификатор кодека :XVID
Продолжительность :1h 24mn 38s 600ms
Битрейт :2 012 Kbps
Ширина :720 pixels
Высота :528 pixels
Соотношение сторон :1.364
Частота кадров :25.000 fps
Глубина цвета :8 bits
Подвыборка цветности :4:2:0
Цветовое пространство :YUV
Тип развертки :Progressive
Бит/(Пиксели*Кадры) :0.212
Размер потока :1.19 GiB (82%)
Библиотека кодирования :XviD0050

Аудио #1
Идентификатор :1
Формат :AC-3
Формат/Информация :Audio Coding 3
Идентификатор кодека :2000
Продолжительность :01:24:38.574
Вид битрейта :Constant
Битрейт :448 Kbps
Канал(ы) :6 channels
Расположение каналов :Front: L C R, Side: L R, LFE
Частота :48.0 KHz
Битовая глубина :16 bits
Метод сжатия :Lossy
Размер потока :271 MiB (18%)



Тех. данные:
Качество:DVDRip
Продолжительность:01:24:30 час

Формат: AVI
В
8b80041996ad9276d0b558d30c3f7f88281874b2Левша (Сергей Овчаров, драма, комедия, 1986) [DVDRip, Не требуется] Левша (Сергей Овчаров, драма, комедия, 1986) [DVDRip, Не требуется] " />

Аплоадер: Админ, дата: 16-02-2013, 21:11, торрент скачан: 359 раз

Понравилась раздача? Посмотрите эти:
  • На подмостках сцены (Константин Юдин, драма, комедия, 1956) [DVDRip, Не тре ...
  • Божья тварь (Галина Данелия-Юркова, комедия, 1991) [DVDRip, Не требуется]
  • Ко мне, Мухтар! (Семен Туманов, В. Тиунова, драма, 1964) [DVDRip, Не требуе ...
  • Старшина (Николай Кошелев, драма, 1979) [DVDRip, Не требуется]
  • Путевка в Жизнь (Николай Экк, драма, 1931) [DVDRip, Не требуется]
  • Прощай, шпана замоскворецкая... (Александр Панкратов, драма, мелодрама, 198 ...
  • Перехват (Сергей Тарасов, боевик, 1986) [DVDRip, Не требуется]
  • Далеко от Москвы (Александр Столпер, драма, 1950) [DVDRip, Не требуется]
  • Завтрак на траве (Николай Александрович, детский, комедия, 1979) [DVDRip, Н ...
  • Ой, вы, гуси... (Лидия Боброва, Драма, 1991) [DVDRip, Не требуется]
  • Капитанская дочка (Владимир Каплуновский, драма, 1958) [DVDRip, Не требуетс ...
  • Чайка (Юлий Карасик, драма, 1972) [DVDRip, Не требуется]
  • Дядя Ваня (Андрей Кончаловский, драма, 1971) [DVDRip, Не требуется]
  • Небывальщина (Сергей Овчаров, комедия, 1983) [DVDRip, Не требуется]
  • Карусель (Михаил Швейцер, комедия, 1970) [DVDRip, Не требуется]
  • Степь (2 части из 2) (Сергей Бондарчук, драма, история, 1977) [DVDRip, Не т ...
  • Проделки в старинном духе (Александр Панкратов, комедия, 1986) [DVDRip, Не ...
  • Судьба человека (Сергей Бондарчук, драма, военный, биография, 1959) [DVDRip ...
  • Кутузов (Владимир Петров, драма, 1943) [DVDRip, Не требуется]
  • Карьера Димы Горина (Фрунзе Довлатян, Лев Мирский, комедия, 1962) [DVDRip, ...
  • Информация
    Посетители, находящиеся в группе Гости, не могут оставлять комментарии к данной публикации.