вход на сайт

Имя пользователя :
Пароль :

Восстановление пароля Регистрация
Легенда о княгине Ольге (Юрий Ильенко, драма, история, 1983) [DVDRip, Не требуется]
Рейтинг:
(голосов: 1)



[img]{THEME}/images/logopost.png[/img]



Легенда о княгине Ольге

Год выпуска: 1983
Страна: СССР
Производство: Студия Довженко
Жанр: драма, история

Режиссёр: Юрий Ильенко
В ролях: Людмила Ефименко, Лесь Сердюк, Иван Иванов, Константин Степанков, Иван Миколайчук, Иван Гаврилюк, Николай Олялин, Дмитрий Миргородский, Светлана Ромашко, Георгий Морозюк

Перевод: Не требуется
Субтитры: Отсутствуют

Описание:
В основе фильма — легенды и сказания, воссоздающие образ княгини Ольги, государственной деятельницы Киевской Руси (конец X — начало XI века). Это рассказы трех, по-разному относящихся к Ольге людей: монаха Арефы, ключницы Малуши и Владимира Красное Солнышко.


Дополнительно:
MediaInfo ▼Text
Общее
Полное имя :J:Легенда о княгине ОльгеLegenda o knjagine Olge.avi
Формат :AVI
Размер :1.37 GiB
Продолжительность :02:07:19.480
Общий поток :1 537 Kbps
Программа кодирования :FairUse Wizard - http://fairusewizard.com
Библиотека кодирования :The best and REALLY easy backup tool

Видео
Идентификатор :0
Формат :MPEG-4 Visual
Параметр BVOP формата :1
Параметр Qpel формата :No
Параметр GMC формата :0
Параметр Matrix формата :Default (H.263)
Идентификатор кодека :DX50
Продолжительность :2h 7mn 19s 480ms
Битрейт :1 143 Kbps
Ширина :672 pixels
Высота :320 pixels
Соотношение сторон :2.100
Частота кадров :25.000 fps
Глубина цвета :8 bits
Подвыборка цветности :4:2:0
Цветовое пространство :YUV
Тип развертки :Progressive
Бит/(Пиксели*Кадры) :0.213
Размер потока :1.02 GiB (74%)
Библиотека кодирования :DivX503b1988p

Аудио #1
Идентификатор :1
Формат :AC-3
Формат/Информация :Audio Coding 3
Идентификатор кодека :2000
Продолжительность :02:07:19.424
Вид битрейта :Constant
Битрейт :384 Kbps
Канал(ы) :6 channels
Расположение каналов :Front: L C R, Side: L R, LFE
Частота :48.0 KHz
Битовая глубина :16 bits
Метод сжатия :Lossy
Размер потока :350 MiB (25%)



Тех. данные:
Качество:&nb
889244eb9e4bba03591d7bf94f3cb5d51061575dЛегенда о княгине Ольге (Юрий Ильенко, драма, история, 1983) [DVDRip, Не требуется] Легенда о княгине Ольге (Юрий Ильенко, драма, история, 1983) [DVDRip, Не требуется] " />

Аплоадер: Админ, дата: 16-02-2013, 21:07, торрент скачан: 359 раз

Понравилась раздача? Посмотрите эти:
  • Если ты прав... (Юрий Егоров, мелодрама, 1963) [DVDRip, Не требуется]
  • Борец и клоун (Борис Барнет, Константин Юдин, драма, спорт, 1957) [DVDRip, ...
  • Человек, которому везло (Константин Ершов, драма, 1978) [DVDRip, Не требует ...
  • История кавалера де Грие и Манон Леско (Роман Виктюк, драма, мелодрама, 197 ...
  • Шел четвертый год войны... (Георгий Николаенко, военный, 1983) [DVDRip, Не ...
  • Ох, уж эта Настя! (Юрий Победоносцев, семейный, 1972) [DVDRip, Не требуется ...
  • Захар Беркут (Леонид Осыка, драма, история, 1972) [DVDRip, Не требуется]
  • Михайло Ломоносов (Александр Иванов, драма, история, 1955) [DVDRip, Не треб ...
  • Повесть о «Неистовом» (Борис Бабочкин, драма, военный, 1947) [DVDRip, Перев ...
  • Рысь выходит на тропу (Агаси Бабаян, комедия, 1983) [DVDRip, Не требуется]
  • Мульт-Салют. 5 ч. из 30: Ох и Ах/Слоненок и письмо/Возвращение блудного поп ...
  • Чайка (Юлий Карасик, драма, 1972) [DVDRip, Не требуется]
  • Небывальщина (Сергей Овчаров, комедия, 1983) [DVDRip, Не требуется]
  • Непобедимый (Юрий Борецкий, боевик, 1983) [DVDRip, Не требуется]
  • Чучело (2 части из 2) (Ролан Быков, Аркадий Хайт, драма, 1983) [DVDRip, Не ...
  • Путь корабля (Юрий Тарич, драма, приключения, 1935) [DVDRip, Не требуется]
  • Легенда о княгине Ольге (Юрий Ильенко, драма, история, 1983) [DVDRip, Ориги ...
  • Вавилон XX (Иван Миколайчук, драма, 1983) [DVDRip, Профессиональный (полное ...
  • Карантин (Илья Фрэз, комедия, 1983) [DVDRip, Не требуется]
  • За облаками – небо (Юрий Егоров, драма, 1973) [DVDRip, Не требуется]
  • Информация
    Посетители, находящиеся в группе Гости, не могут оставлять комментарии к данной публикации.