вход на сайт

Имя пользователя :
Пароль :

Восстановление пароля Регистрация
Лес (Владимир Мотыль, драма, 1980) [DVDRip, Не требуется]
Рейтинг:
(голосов: 1)



[img]{THEME}/images/logopost.png[/img]



Лес

Год выпуска: 1980
Страна: СССР
Производство: Ленфильм
Жанр: драма

Режиссёр: Владимир Мотыль
В ролях: Людмила Целиковская, Борис Плотников, Вячеслав Кириличев, Станислав Садальский, Елена Борзова, Александр Соловьев, Михаил Пуговкин, Кира Крейлис-Петрова, Виктор Цепаев, Алексей Кожевников

Перевод: Не требуется
Субтитры: Отсутствуют

Описание:
Госпожа Гурмыжская — некогда блиставшая своей красотой барыня, встречает старость в своем имении, в глухой провинции. К ней в поместье приезжает племянник, недоучившийся гимназист, и хозяйка, скуки ради, решает завести с ним интрижку… Тот охотно отвечает богатой тетушке «взаимностью».


Дополнительно:
MediaInfo ▼Text
Общее
Полное имя :J:ЛесLes.avi
Формат :AVI
Размер :1.37 GiB
Продолжительность :01:31:20.448
Общий поток :2 146 Kbps
Программа кодирования :VirtualDubModRus 1.5.10.2 (build 2542/release)
Библиотека кодирования :VirtualDubMod build 2542/release

Видео
Идентификатор :0
Формат :MPEG-4 Visual
Профиль формата :Advanced [email protected]
Параметр BVOP формата :2
Параметр Qpel формата :No
Параметр GMC формата :0
Параметр Matrix формата :Default (H.263)
Идентификатор кодека :XVID
Продолжительность :1h 31mn 20s 440ms
Битрейт :1 944 Kbps
Ширина :688 pixels
Высота :384 pixels
Соотношение сторон :1.792
Частота кадров :25.000 fps
Глубина цвета :8 bits
Подвыборка цветности :4:2:0
Цветовое пространство :YUV
Тип развертки :Progressive
Бит/(Пиксели*Кадры) :0.294
Размер потока :1.24 GiB (91%)
Библиотека кодирования :XviD0063

Аудио #1
Идентификатор :1
Формат :MPEG Audio
Идентификатор кодека :55
Продолжительность :01:31:20.448
Вид битрейта :Constant
Битрейт :192 Kbps
Канал(ы) :2 channels
Частота :48.0 KHz
Метод сжатия :Lossy
Размер потока :125 MiB (9%)Тех. данные:
Качество:DVDRip
Продолжительность:01:31:28 час

Формат: AVI
Видео кодек: XviD
Аудио кодек: MPA1L3
Видео: 688 x 384 (16:9), 25.000 fps, 1 9
4bc57f5d0aec39f3658e58a3bde6f766fbde4128Лес (Владимир Мотыль, драма, 1980) [DVDRip, Не требуется] Лес (Владимир Мотыль, драма, 1980) [DVDRip, Не требуется] " />

Аплоадер: Админ, дата: 16-02-2013, 20:52, торрент скачан: 359 раз

Понравилась раздача? Посмотрите эти:
  • Открытая книга (Владимир Фетин, драма, биография, 1973) [DVDRip, Не требуе ...
  • Нейтральные воды (Владимир Беренштейн, драма, 1968) [DVDRip, Не требуется]
  • Из жизни отдыхающих (Николай Губенко, драма, мелодрама, 1980) [DVDRip, Не т ...
  • Дама с собачкой (Иосиф Хейфиц, драма, мелодрама, 1959) [DVDRip, Не требуетс ...
  • Выстрел (Наум Трахтенберг, драма, 1966) [DVDRip, Не требуется]
  • Гражданин Лёшка (Виктор Крючков, комедия, 1980) [DVDRip, Не требуется]
  • Расстанемся - пока хорошие (Владимир Мотыль, мелодрама, приключения, 1991) ...
  • Пакет (Владимир Назаров, комедия, приключения, семейный, 1965) [DVDRip, Не ...
  • Звезда пленительного счастья (2 части из 2) (Владимир Мотыль, драма, мелодр ...
  • Друг мой, Колька!.. (Александр Митта, Алексей Салтыков, драма, 1961) [DVDRi ...
  • Капитанская дочка (Владимир Каплуновский, драма, 1958) [DVDRip, Не требуетс ...
  • Какие наши годы! (Эльёр Ишмухамедов, драма, 1980) [DVDRip, Не требуется]
  • Невероятное пари, или Истинное происшествие, благополучно завершившееся сто ...
  • Порожний рейс (Владимир Венгеров, драма, 1962) [DVDRip, Не требуется]
  • Ты и я (Лариса Шепитько, драма, 1971) [DVDRip, Не требуется]
  • Чайка (Юлий Карасик, драма, 1972) [DVDRip, Не требуется]
  • Печники (Виктор Храмов, драма, 1982) [DVDRip, Не требуется]
  • Степь (2 части из 2) (Сергей Бондарчук, драма, история, 1977) [DVDRip, Не т ...
  • Сотрудник ЧК (Борис Волчек, боевик, история, 1963) [DVDRip, Не требуется]
  • У матросов нет вопросов (Владимир Роговой, мюзикл, комедия, 1980) [DVDRip, ...
  • Донская повесть (Владимир Фетин, драма, 1964) [DVDRip, Не требуется]
  • Чудак-человек (Владимир Кочетов, комедия, 1962) [DVDRip, Не требуется]
  • Женя, Женечка и «Катюша» (Владимир Мотыль, мелодрама, комедия, военный, 196 ...
  • Мексиканец (Владимир Каплуновский, драма, 1955) [DVDRip, Не требуется]
  • Гарем Степана Гуслякова (Алишер Хамдамов, драма, 1989) [TVRip, Не требуетс ...
  • Информация
    Посетители, находящиеся в группе Гости, не могут оставлять комментарии к данной публикации.