вход на сайт

Имя пользователя :
Пароль :

Восстановление пароля Регистрация
Мама (Элизабета Бостан, мюзикл, фэнтези, семейный, 1976) [DVDRip, Не требуется]
Рейтинг:
(голосов: 1)



[img]{THEME}/images/logopost.png[/img]



Мама

Год выпуска: 1976
Страна: Франция, СССР ,Румыния
Производство: Мосфильм, Ralux Film, Romania Film
Жанр: мюзикл, фэнтези, семейный

Режиссёр: Элизабета Бостан
В ролях: Людмила Гурченко, Михаил Боярский, Олег Попов, Савелий Крамаров, Валентин Манохин, Джордж Михаица, Флориан Питиш, Вера Ивлева, Евгений Герчаков, Наталья Крачковская

Перевод: Не требуется
Субтитры: Отсутствуют

Описание:
Остроумная музыкальная версия всем известной истории про Серого Волка, семерых козлят (в фильме их пятеро) и их очаровательную героическую Маму.


Дополнительно:
MediaInfo ▼Text
Общее
Полное имя :D:МамаMama.avi
Формат :AVI
Размер :1.37 GiB
Продолжительность :01:23:10.520
Общий поток :2 352 Kbps
Программа кодирования :VirtualDubModRus 1.5.10.2 (build 2542/release)
Библиотека кодирования :VirtualDubMod build 2542/release

Видео
Идентификатор :0
Формат :MPEG-4 Visual
Параметр BVOP формата :Yes
Параметр Qpel формата :No
Параметр GMC формата :0
Параметр Matrix формата :Default (H.263)
Идентификатор кодека :DX50
Продолжительность :1h 23mn 10s 520ms
Битрейт :2 150 Kbps
Ширина :704 pixels
Высота :320 pixels
Соотношение сторон :2.200
Частота кадров :25.000 fps
Глубина цвета :8 bits
Подвыборка цветности :4:2:0
Цветовое пространство :YUV
Тип развертки :Progressive
Бит/(Пиксели*Кадры) :0.382
Размер потока :1.25 GiB (91%)
Библиотека кодирования :DivX503b2676p

Аудио #1
Идентификатор :1
Формат :AC-3
Формат/Информация :Audio Coding 3
Идентификатор кодека :2000
Продолжительность :01:23:10.496
Вид битрейта :Constant
Битрейт :192 Kbps
Канал(ы) :2 channels
Расположение каналов :Front: L R
Частота :48.0 KHz
Битовая глубина :16 bits
Метод сжатия :Lossy
Размер потока :114 MiB (8%)



Тех. данные:
Качество:DVDRip
Продолжительность:01:23:10 час

Формат: AVI
Видео кодек: DivX
Ауд
d539f234acf99c800923fa6abeac26a183c0e94aМама (Элизабета Бостан, мюзикл, фэнтези, семейный, 1976) [DVDRip, Не требуется] Мама (Элизабета Бостан, мюзикл, фэнтези, семейный, 1976) [DVDRip, Не требуется] " />

Аплоадер: Админ, дата: 14-02-2013, 19:35, торрент скачан: 359 раз

Понравилась раздача? Посмотрите эти:
  • Дон Сезар де Базан (2 части из 2) (Ян Фрид, мюзикл, комедия, 1989) [DVDRip, ...
  • По главной улице с оркестром (Петр Тодоровский, мюзикл, мелодрама, комедия, ...
  • Волшебная сила (Наум Бирман, мюзикл, комедия, семейный, 1970) [DVDRip, Не т ...
  • Деревня Утка (Борис Бунеев, семейный, 1976) [DVDRip, Не требуется]
  • Небесные ласточки (2 части из 2) (Леонид Квинихидзе, мюзикл, драма, комедия ...
  • Князь Игорь (Роман Тихомиров, мюзикл, приключения, 1969) [DVDRip, Не требуе ...
  • Огонь, вода и ... медные трубы // Золотые рога // Варвара-краса, длинная ко ...
  • Сватовство гусара (Светлана Дружинина, мюзикл, мелодрама, комедия, 1979) [D ...
  • Как Иванушка-дурачок за чудом ходил (Надежда Кошеверова, фэнтези, семейный, ...
  • Табачный капитан (Игорь Усов, мюзикл, комедия, история, 1972) [DVDRip, Не т ...
  • Соловей (Надежда Кошеверова, мюзикл, семейный, 1979) [DVDRip, Не требуется] ...
  • Светлая личность (Александр Павловский, мюзикл, комедия, 1989) [DVDRip, Не ...
  • Табор уходит в небо (Эмиль Лотяну, мюзикл, драма, мелодрама, 1976) [DVDRip, ...
  • Шельменко-денщик (Андрей Тутышкин, мюзикл, комедия, 1971) [DVDRip, Не требу ...
  • Сказ про то, как царь Петр арапа женил (Александр Митта, мюзикл, мелодрама, ...
  • Проданный смех (2 части из 2) (Леонид Нечаев, мюзикл, фэнтези, приключения, ...
  • 31 июня (2 части из 2) (Леонид Квинихидзе, мюзикл, фэнтези, мелодрама, 1978 ...
  • Садко (Александр Птушко, фэнтези, приключения, 1952) [DVDRip, Не требуется] ...
  • Русалочка (Владимир Бычков, мюзикл, фэнтези, мелодрама, семейный, 1976) [DV ...
  • Приключения маленького Мука (Елизавета Кимягарова, мюзикл, семейный, 1983) ...
  • Пока бьют часы (Геннадий Васильев, фэнтези, семейный, 1976) [DVDRip, Не тре ...
  • Мама [1976, Фэнтези, Мюзикл, Семейный, DVDRip]
  • Беспокойное хозяйство (Михаил Жаров, мюзикл, комедия, военный, 1945) [DVDRi ...
  • Автомобиль, скрипка и собака Клякса (Ролан Быков, мюзикл, семейный, 1974) [ ...
  • Каникулы Петрова и Васечкина, обыкновенные и невероятные (2 части из 2) (Вл ...
  • Информация
    Посетители, находящиеся в группе Гости, не могут оставлять комментарии к данной публикации.