вход на сайт

Имя пользователя :
Пароль :

Восстановление пароля Регистрация
Мистер Икс (Юлий Хмельницкий, мюзикл, мелодрама, комедия, 1958) [DVDRip, Не требуется]
Рейтинг:
(голосов: 1)



[img]{THEME}/images/logopost.png[/img]



Мистер Икс

Год выпуска: 1958
Страна: СССР
Производство: Ленфильм
Жанр: мюзикл, мелодрама, комедия

Режиссёр: Юлий Хмельницкий
В ролях: Георг Отс, Марина Юрасова, Анатолий Королькевич, Зоя Виноградова, Николай Каширский, Гликерия Богданова-Чеснокова, Григорий Ярон, Оскар Линд, Дмитрий Волосов, Тамара Богданова

Перевод: Не требуется
Субтитры: Отсутствуют

Описание:
В мире этой благородной дамы циркачей считали за людей третьего сорта, и только подлость одного негодяя, решившего скомпрометировать ее, позволила шуту приблизиться к красавице без маски, но под видом, увы, другого человека, знатного графа.


Дополнительно:
MediaInfo ▼Text
Общее
Полное имя :L:Мистер ИксMister X.avi
Формат :AVI
Размер :1.36 GiB
Продолжительность :01:28:55.400
Общий поток :2 195 Kbps
Программа кодирования :FairUse Wizard - http://fairusewizard.com
Библиотека кодирования :The best and REALLY easy backup tool

Видео
Идентификатор :0
Формат :MPEG-4 Visual
Параметр BVOP формата :1
Параметр Qpel формата :No
Параметр GMC формата :0
Параметр Matrix формата :Default (H.263)
Идентификатор кодека :DX50
Продолжительность :1h 28mn 55s 400ms
Битрейт :1 994 Kbps
Ширина :688 pixels
Высота :512 pixels
Соотношение сторон :1.344
Частота кадров :25.000 fps
Глубина цвета :8 bits
Подвыборка цветности :4:2:0
Цветовое пространство :YUV
Тип развертки :Progressive
Бит/(Пиксели*Кадры) :0.226
Размер потока :1.24 GiB (91%)
Библиотека кодирования :DivX503b2432p

Аудио #1
Идентификатор :1
Формат :AC-3
Формат/Информация :Audio Coding 3
Идентификатор кодека :2000
Продолжительность :01:28:55.400
Вид битрейта :Constant
Битрейт :192 Kbps
Канал(ы) :2 channels
Расположение каналов :Front: L R
Частота :48.0 KHz
Битовая глубина :16 bits
Метод сжатия :Lossy
Размер потока :122 MiB (9%)Тех. данные:
Качество:DVDRip
Продолжительность:01:28:50 час
&
1e14bbfba592f65981397920197eb0a4123784b4Мистер Икс (Юлий Хмельницкий, мюзикл, мелодрама, комедия, 1958) [DVDRip, Не требуется] Мистер Икс (Юлий Хмельницкий, мюзикл, мелодрама, комедия, 1958) [DVDRip, Не требуется] " />

Аплоадер: Админ, дата: 12-02-2013, 18:28, торрент скачан: 359 раз

Понравилась раздача? Посмотрите эти:
  • Однажды на матрасе / Once Upon a Mattress (Кэтлин Маршалл, мюзикл, мелодрам ...
  • Дикая собака Динго (Юлий Карасик, драма, 1962) [DVDRip, Не требуется]
  • Покровские ворота (2 части из 2) (Михаил Козаков, мюзикл, драма, мелодрама, ...
  • Поезд идёт на восток (Цветной) (Юлий Райзман, мелодрама, комедия, 1947) [DV ...
  • По главной улице с оркестром (Петр Тодоровский, мюзикл, мелодрама, комедия, ...
  • Ссора в Лукашах (Максим Руф, мюзикл, комедия, 1959) [DVDrip, Не требуется]
  • Моя любовь (Владимир Корш-Саблин, мюзикл, мелодрама, комедия, 1940) [DVDRip ...
  • Князь Игорь (Роман Тихомиров, мюзикл, приключения, 1969) [DVDRip, Не требуе ...
  • Крепостная актриса (Роман Тихомиров, мюзикл, 1964) [DVDRip, Не требуется]
  • Сватовство гусара (Светлана Дружинина, мюзикл, мелодрама, комедия, 1979) [D ...
  • Первая перчатка (Андрей Фролов, мюзикл, мелодрама, комедия, спорт, 1946) [D ...
  • Чайка (Юлий Карасик, драма, 1972) [DVDRip, Не требуется]
  • Табачный капитан (Игорь Усов, мюзикл, комедия, история, 1972) [DVDRip, Не т ...
  • Трембита (Олег Николаевский, мюзикл, мелодрама, комедия, 1968) [DVDRip, Не ...
  • Соловей (Надежда Кошеверова, мюзикл, семейный, 1979) [DVDRip, Не требуется] ...
  • Светлая личность (Александр Павловский, мюзикл, комедия, 1989) [DVDRip, Не ...
  • Табор уходит в небо (Эмиль Лотяну, мюзикл, драма, мелодрама, 1976) [DVDRip, ...
  • Шельменко-денщик (Андрей Тутышкин, мюзикл, комедия, 1971) [DVDRip, Не требу ...
  • Собака на сене (Реставрирован) (Ян Фрид, мюзикл, комедия, 1977) [DVDRip, Не ...
  • Стакан воды (Юлий Карасик, мелодрама, комедия, история, 1979) [DVDRip, Не т ...
  • Русалочка (Владимир Бычков, мюзикл, фэнтези, мелодрама, семейный, 1976) [DV ...
  • Мистер Икс (Юзеф Хмельницкий, Комедия, 1958 г.) [DVDRip]
  • Шофер поневоле (Надежда Кошеверова, комедия, 1958) [DVDRip, Не требуется]
  • Пограничный пес Алый (Юлий Файт, драма, 1979) [DVDRip, Не требуется]
  • Мамлюк (Давит Рондели, боевик, мелодрама, приключения, военный, 1958) [DVDR ...
  • Информация
    Посетители, находящиеся в группе Гости, не могут оставлять комментарии к данной публикации.