вход на сайт

Имя пользователя :
Пароль :

Восстановление пароля Регистрация
Миллионы Ферфакса (Николай Ильинский, криминал, детектив, 1980) [DVDRip, Не требуется]
Рейтинг:
(голосов: 1)



[img]{THEME}/images/logopost.png[/img]



Миллионы Ферфакса

Год выпуска: 1980
Страна: СССР
Производство: Студия Довженко, Время
Жанр: криминал, детектив

Режиссёр: Николай Ильинский
В ролях: Юозас Будрайтис, Гражина Байкштите, Ильмар Таммур, Александр Мартынов, Хелга Данцберга, Повилас Гайдис, Гедиминас Гирдвайнис, Юрис Стренга, Галина Логинова, Ивар Калныньш

Перевод: Не требуется
Субтитры: Отсутствуют

Описание:
Как справедливо заметил классик, к болезням состоятельных людей принято относиться почтительно. Угасающую жизнь миллионера Ферфакса может спасти только пересадка сердца.

В поисках подходящего донора для своего лучшего клиента доктор Джонс совершает ряд убийств. Но он еще не знает, какая награда ждет его за оказанные услуги…


Дополнительно:
MediaInfo ▼Text
Общее
Полное имя :J:Миллионы ФерфаксаMilliony Ferfaksa.1980.avi
Формат :AVI
Размер :1.37 GiB
Продолжительность :01:21:33.440
Общий поток :2 398 Kbps
Программа кодирования :VirtualDubMod 1.5.10.2 (build 2540/release)

Видео
Идентификатор :0
Формат :MPEG-4 Visual
Параметр BVOP формата :2
Параметр Qpel формата :No
Параметр GMC формата :0
Параметр Matrix формата :Default (MPEG)
Идентификатор кодека :DX50
Продолжительность :1h 21mn 33s 440ms
Битрейт :2 006 Kbps
Ширина :720 pixels
Высота :448 pixels
Соотношение сторон :1.607
Частота кадров :25.000 fps
Глубина цвета :8 bits
Подвыборка цветности :4:2:0
Цветовое пространство :YUV
Тип развертки :Progressive
Бит/(Пиксели*Кадры) :0.249
Размер потока :1.14 GiB (84%)
Библиотека кодирования :DivX503b2559p

Аудио #1
Идентификатор :1
Формат :AC-3
Формат/Информация :Audio Coding 3
Идентификатор кодека :2000
Продолжительность :01:21:33.408
Вид битрейта :Constant
Битрейт :384 Kbps
Канал(ы) :6 channels
Расположение каналов :Front: L C R, Side: L R, LFE
Частота :48.0 KHz
Битовая глубина :16 bits
Метод сжатия :Lossy
Размер потока :224 MiB (16%)Тех. данные:
Качество:&nb
52cf1c7d6e71e6fc12f4dd2dc2f9303cbf7e6c3dМиллионы Ферфакса (Николай Ильинский, криминал, детектив, 1980) [DVDRip, Не требуется] Миллионы Ферфакса (Николай Ильинский, криминал, детектив, 1980) [DVDRip, Не требуется] " />

Аплоадер: Админ, дата: 12-02-2013, 18:08, торрент скачан: 359 раз

Понравилась раздача? Посмотрите эти:
  • Подранки (Николай Губенко, драма, 1976) [DVDRip, Не требуется]
  • "Мерседес" уходит от погони (Юрий Ляшенко, военный, 1980) [DVDRip, Не требу ...
  • На берегу большой реки (Николай Гусаров, драма, мелодрама, 1980) [DVDRip, Н ...
  • Из жизни отдыхающих (Николай Губенко, драма, мелодрама, 1980) [DVDRip, Не т ...
  • Дело Румянцева (Иосиф Хейфиц, драма, криминал, детектив, 1955) [DVDRip, Не ...
  • Девушка со швейной машинкой (Михаил Чиаурели, Георгий Шенгелая, комедия, 19 ...
  • Два долгих гудка в тумане (Валерий Родченко, боевик, 1980) [DVDRip, Не треб ...
  • Гражданин Лёшка (Виктор Крючков, комедия, 1980) [DVDRip, Не требуется]
  • Шел четвертый год войны... (Георгий Николаенко, военный, 1983) [DVDRip, Не ...
  • Старшина (Николай Кошелев, драма, 1979) [DVDRip, Не требуется]
  • Путевка в Жизнь (Николай Экк, драма, 1931) [DVDRip, Не требуется]
  • Всадник на золотом коне (Василий Журавлев, фэнтези, 1980) [DVDRip, Не требу ...
  • Две стрелы. Детектив каменного века (Алла Сурикова, комедия, криминал, 1989 ...
  • Деревенский детектив (Иван Лукинский, комедия, криминал, 1968) [DVDRip, Не ...
  • Завтрак на траве (Николай Александрович, детский, комедия, 1979) [DVDRip, Н ...
  • Шерлок Холмс и доктор Ватсон: Охота на тигра / Смертельная схватка / Собака ...
  • Маленький гигант большого секса (Николай Досталь, Комедия, 1992) [DVDRip, Н ...
  • Эти разные, разные, разные лица (Игорь Ильинский, Юрий Сааков, комедия, при ...
  • Эскадрон гусар летучих (Никита Хубов, Станислав Ростоцкий, военный, 1980) [ ...
  • Трактир на Пятницкой (Александр Файнциммер, криминал, детектив, 1977) [DVDR ...
  • Игра на миллионы (Геннадий Байсак, комедия, криминал, приключения, 1991) [T ...
  • У матросов нет вопросов (Владимир Роговой, мюзикл, комедия, 1980) [DVDRip, ...
  • Юность Петра (Сергей Герасимов, драма, биография, 1980) [DVDRip, Не требует ...
  • В начале славных дел (Сергей Герасимов, драма, история, 1980) [DVDRip, Не т ...
  • Воскресенье, половина седьмого (4 части из 4) (Вадим Зобин, криминал, детек ...
  • Информация
    Посетители, находящиеся в группе Гости, не могут оставлять комментарии к данной публикации.