вход на сайт

Имя пользователя :
Пароль :

Восстановление пароля Регистрация
Моя любовь (Владимир Корш-Саблин, мюзикл, мелодрама, комедия, 1940) [DVDRip, Не требуется]
Рейтинг:
(голосов: 1)



[img]{THEME}/images/logopost.png[/img]



Моя любовь

Год выпуска: 1940
Страна: СССР
Производство: Беларусьфильм
Жанр: мюзикл, мелодрама, комедия

Режиссёр: Владимир Корш-Саблин
В ролях: Лидия Смирнова, Иван Переверзев, Владимир Чобур, Феликс Черноусько, Мария Ключарева, Н. Крикунова, Алексей Матов, Владимир Шишкин, М. Шлёнская, Николай Соколов

Перевод: Не требуется
Субтитры: Отсутствуют

Описание:
Милая и добрая девушка усыновила малыша — и это привело к забавным недоразумениям в ее отношениях с поклонниками и к полной ясности в установлении мнимых и настоящих чувств…


Дополнительно:
MediaInfo ▼Text
Общее
Полное имя :J:1. РАЗДАЧАМоя любовьМоя любовь (1940).avi
Формат :AVI
Размер :1.37 GiB
Продолжительность :01:14:50.040
Общий поток :2 613 Kbps
Программа кодирования :VirtualDubMod 1.5.4.1 (build 2178/release)
Библиотека кодирования :VirtualDubMod build 2178/release

Видео
Идентификатор :0
Формат :MPEG-4 Visual
Профиль формата :Advanced [email protected]
Параметр BVOP формата :1
Параметр Qpel формата :No
Параметр GMC формата :0
Параметр Matrix формата :Custom
Идентификатор кодека :XVID
Продолжительность :1h 14mn 50s 40ms
Битрейт :2 414 Kbps
Ширина :688 pixels
Высота :512 pixels
Соотношение сторон :1.344
Частота кадров :25.000 fps
Глубина цвета :8 bits
Подвыборка цветности :4:2:0
Цветовое пространство :YUV
Тип развертки :Progressive
Бит/(Пиксели*Кадры) :0.274
Размер потока :1.26 GiB (92%)
Библиотека кодирования :XviD0050

Аудио #1
Идентификатор :1
Формат :AC-3
Формат/Информация :Audio Coding 3
Идентификатор кодека :2000
Продолжительность :01:14:50.016
Вид битрейта :Constant
Битрейт :192 Kbps
Канал(ы) :2 channels
Расположение каналов :Front: L R
Частота :48.0 KHz
Битовая глубина :16 bits
Метод сжатия :Lossy
Размер потока :103 MiB (7%)
Язык :Rus
dbcfd9d5d2a3df158adc5a0dc2d30a47d20071aeМоя любовь (Владимир Корш-Саблин, мюзикл, мелодрама, комедия, 1940) [DVDRip, Не требуется] Моя любовь (Владимир Корш-Саблин, мюзикл, мелодрама, комедия, 1940) [DVDRip, Не требуется] " />

Аплоадер: Админ, дата: 11-02-2013, 19:27, торрент скачан: 359 раз

Понравилась раздача? Посмотрите эти:
  • Матрос Чижик (Владимир Браун, мелодрама, 1955) [DVDRip, Не требуется]
  • Воздушный извозчик (Герберт Раппапорт, мюзикл, комедия, 1943) [DVDRip, Не т ...
  • Покровские ворота (2 части из 2) (Михаил Козаков, мюзикл, драма, мелодрама, ...
  • Поезд идёт на восток (Цветной) (Юлий Райзман, мелодрама, комедия, 1947) [DV ...
  • По главной улице с оркестром (Петр Тодоровский, мюзикл, мелодрама, комедия, ...
  • Всё наоборот (Виталий Фетисов, Владимир Грамматиков, мелодрама, комедия, 19 ...
  • Левша (Сергей Овчаров, драма, комедия, 1986) [DVDRip, Не требуется]
  • Сватовство гусара (Светлана Дружинина, мюзикл, мелодрама, комедия, 1979) [D ...
  • Первая перчатка (Андрей Фролов, мюзикл, мелодрама, комедия, спорт, 1946) [D ...
  • Вратарь (Семен Тимошенко, мюзикл, комедия, спорт, 1936) [DVDRip, Не требует ...
  • Танкер «Дербент» (Александр Файнциммер, приключения, 1940) [DVDRip, Не треб ...
  • Трембита (Олег Николаевский, мюзикл, мелодрама, комедия, 1968) [DVDRip, Не ...
  • Трест, который лопнул (3 части из 3) (Александр Павловский, мюзикл, комедия ...
  • У матросов нет вопросов (Владимир Роговой, мюзикл, комедия, 1980) [DVDRip, ...
  • Соловей (Надежда Кошеверова, мюзикл, семейный, 1979) [DVDRip, Не требуется] ...
  • Шельменко-денщик (Андрей Тутышкин, мюзикл, комедия, 1971) [DVDRip, Не требу ...
  • Женя, Женечка и «Катюша» (Владимир Мотыль, мелодрама, комедия, военный, 196 ...
  • Комедия строгого режима (Михаил Григорьев, Владимир Студенников, Комедия, 1 ...
  • Карьера Димы Горина (Фрунзе Довлатян, Лев Мирский, комедия, 1962) [DVDRip, ...
  • Каникулы Петрова и Васечкина, обыкновенные и невероятные (2 части из 2) (Вл ...
  • Информация
    Посетители, находящиеся в группе Гости, не могут оставлять комментарии к данной публикации.