вход на сайт

Имя пользователя :
Пароль :

Восстановление пароля Регистрация
Михайло Ломоносов (Александр Иванов, драма, история, 1955) [DVDRip, Не требуется]
Рейтинг:
(голосов: 1)



[img]{THEME}/images/logopost.png[/img]



Михайло Ломоносов

Год выпуска: 1955
Страна: СССР
Производство: Ленфильм
Жанр: драма, история

Режиссёр: Александр Иванов
В ролях: Борис Ливанов, Владимир Сошальский, Алексей Консовский, Владимир Белокуров, Антс Эскола, Сергей Дворецкий, Янис Осис, Юрий Толубеев, Виктор Чайников, Аста Виханди

Перевод: Не требуется
Субтитры: Отсутствуют

Описание:
После нескольких лет учебы о Германии Ломоносов возвращается на родину. Ученый мечтает о создании научных центров в Петербурге и в Москве, об открытии Московского университета.


Дополнительно:
MediaInfo ▼Text
Общее
Полное имя :K:Михайло Ломоносов.1955Mixaylo lomonosov.1955.XviD.DVDRip.avi
Формат :AVI
Размер :1.46 GiB
Продолжительность :01:38:54.220
Общий поток :2 108 Kbps
Программа кодирования :Lavf52.33.0

Видео
Идентификатор :0
Формат :MPEG-4 Visual
Профиль формата :[email protected]
Параметр BVOP формата :No
Параметр Qpel формата :No
Параметр GMC формата :0
Параметр Matrix формата :Default (H.263)
Идентификатор кодека :XVID
Продолжительность :1h 38mn 54s 220ms
Битрейт :1 906 Kbps
Ширина :720 pixels
Высота :544 pixels
Соотношение сторон :1.324
Частота кадров :23.976 fps
Глубина цвета :8 bits
Подвыборка цветности :4:2:0
Цветовое пространство :YUV
Тип развертки :Progressive
Бит/(Пиксели*Кадры) :0.203
Размер потока :1.32 GiB (90%)
Библиотека кодирования :XviD0050

Аудио #1
Идентификатор :1
Формат :AC-3
Формат/Информация :Audio Coding 3
Идентификатор кодека :2000
Продолжительность :01:38:54.048
Вид битрейта :Constant
Битрейт :192 Kbps
Канал(ы) :2 channels
Расположение каналов :Front: L R
Частота :48.0 KHz
Битовая глубина :16 bits
Метод сжатия :Lossy
Размер потока :136 MiB (9%)



Тех. данные:
Качество:DVDRip
Продолжительность:01:38:50 час

Формат: AVI
Видео кодек: XviD
Аудио кодек: AC3
Видео: 720 x 544 (4:
5583f0fc09ff52eba5cbfdb2a4982e159baf1ac3Михайло Ломоносов (Александр Иванов, драма, история, 1955) [DVDRip, Не требуется] Михайло Ломоносов (Александр Иванов, драма, история, 1955) [DVDRip, Не требуется] " />

Аплоадер: Админ, дата: 11-02-2013, 19:04, торрент скачан: 359 раз

Понравилась раздача? Посмотрите эти:
  • История кавалера де Грие и Манон Леско (Роман Виктюк, драма, мелодрама, 197 ...
  • Жди меня (Борис Иванов, Александр Столпер, драма, военный, 1972) [DVDRip, Н ...
  • Дорога (Александр Столпер, боевик, 1955) [DVDRip, Не требуется]
  • Дело Румянцева (Иосиф Хейфиц, драма, криминал, детектив, 1955) [DVDRip, Не ...
  • Девушка джигит (Павел Боголюбов, комедия, 1955) [DVDRip, Не требуется]
  • Четвертый (Александр Столпер, драма, 1972) [DVDRip, Не требуется]
  • Попрыгунья (Самсон Самсонов, драма, 1955) [DVDRip, Не требуется]
  • Сапоги (Владимир Немоляев, короткометражка, драма, комедия, 1957) [DVDRip, ...
  • Парень из нашего города (Александр Столпер, Борис Иванов, драма, военный, 1 ...
  • Мульт-Салют. 22 ч. из 30: Необыкновенный матч/Старые знакомые/Шайбу! Шайбу! ...
  • Печники (Виктор Храмов, драма, 1982) [DVDRip, Не требуется]
  • Небывальщина (Сергей Овчаров, комедия, 1983) [DVDRip, Не требуется]
  • Сотрудник ЧК (Борис Волчек, боевик, история, 1963) [DVDRip, Не требуется]
  • Холодное лето пятьдесят третьего (Александр Прошкин, боевик, драма, кримина ...
  • Робинзон Крузо (Александр Андриевский, драма, приключения, 1946) [DVDRip, Н ...
  • Михайло Ломоносов (Александр Прошкин, историко-биографический фильм, 1984, ...
  • Солдат удачи / Soldier of Fortune (Эдвард Дмитрык, приключения, драма, 1955 ...
  • Болотные солдаты (Александр Мачерет, драма, военный, 1938) [DVDRip, Не треб ...
  • Запасной игрок (Семен Тимошенко, комедия, спорт, 1955) [DVDRip, Не требуетс ...
  • Шведская спичка (Константин Юдин, комедия, детектив, 1955) [DVDRip, Не треб ...
  • Два капитана (Владимир Венгеров, приключения, 1955) [ТVRip, Не требуется]
  • Ключи от неба (Виктор Иванов, комедия, 1964) [DVDRip, Не требуется]
  • Александр Попов (Виктор Эйсымонт, Герберт Раппапорт, драма, биография, 1949 ...
  • Максим Перепелица (Анатолий Граник, комедия, 1955) [DVDRip, Не требуется]
  • Мексиканец (Владимир Каплуновский, драма, 1955) [DVDRip, Не требуется]
  • Информация
    Посетители, находящиеся в группе Гости, не могут оставлять комментарии к данной публикации.