вход на сайт

Имя пользователя :
Пароль :

Восстановление пароля Регистрация
На графских развалинах (Владимир Скуйбин, приключения, семейный, 1957) [DVDRip, Не требуется]
Рейтинг:
(голосов: 1)



[img]{THEME}/images/logopost.png[/img]



На графских развалинах

Год выпуска: 1957
Страна: СССР
Производство: Мосфильм
Жанр: приключения, семейный

Режиссёр: Владимир Скуйбин
В ролях: Борис Новиков, Владимир Сошальский, Е. Федоренко, Георгий Гумилевский, И. Кедо, Елизавета Кузюрина, Евгения Лыжина, Семен Морозов, Анатолий Новиков, Геннадий Сергеев

Перевод: Не требуется
Субтитры: Отсутствуют

Описание:
Действие фильма происходит во время гражданской войны. Толя Дергач, потеряв родителей, попадает под влияние бандитов, ищущих спрятанный в развалинах имения клад.

Мальчик, конечно же, разберется в своих новых приятелях — и вместе со старыми друзьями поможет чекистам обезвредить преступников.


Дополнительно:
MediaInfo ▼Text
Общее
Полное имя :J:На графских развалинахNa grafskikh razvalinakh.avi
Формат :AVI
Размер :1.09 GiB
Продолжительность :01:03:53.080
Общий поток :2 451 Kbps
Программа кодирования :VirtualDubModRus 1.5.10.2 (build 2542/release)
Библиотека кодирования :VirtualDubMod build 2542/release

Видео
Идентификатор :0
Формат :MPEG-4 Visual
Параметр BVOP формата :1
Параметр Qpel формата :No
Параметр GMC формата :0
Параметр Matrix формата :Default (H.263)
Идентификатор кодека :DX50
Продолжительность :1h 3mn 53s 80ms
Битрейт :2 057 Kbps
Ширина :688 pixels
Высота :512 pixels
Соотношение сторон :1.344
Частота кадров :25.000 fps
Глубина цвета :8 bits
Подвыборка цветности :4:2:0
Цветовое пространство :YUV
Тип развертки :Progressive
Бит/(Пиксели*Кадры) :0.234
Размер потока :940 MiB (84%)
Библиотека кодирования :DivX503b2676p

Аудио #1
Идентификатор :1
Формат :AC-3
Формат/Информация :Audio Coding 3
Идентификатор кодека :2000
Продолжительность :01:03:52.896
Вид битрейта :Constant
Битрейт :384 Kbps
Канал(ы) :2 channels
Расположение каналов :Front: L R
Частота :48.0 KHz
Битовая глубина :16 bits
Метод сжатия :Lossy
Размер потока :175 MiB (16%)



Тех. д
9e38a879d38fae7a9b5c1798062daa193f967758На графских развалинах (Владимир Скуйбин, приключения, семейный, 1957) [DVDRip, Не требуется] На графских развалинах (Владимир Скуйбин, приключения, семейный, 1957) [DVDRip, Не требуется] " />

Аплоадер: Админ, дата: 10-02-2013, 17:35, торрент скачан: 359 раз

Понравилась раздача? Посмотрите эти:
  • Борец и клоун (Борис Барнет, Константин Юдин, драма, спорт, 1957) [DVDRip, ...
  • Нейтральные воды (Владимир Беренштейн, драма, 1968) [DVDRip, Не требуется]
  • Совсем пропащий (Георгий Данелия, приключения, 1973) [DVDRip, Не требуется] ...
  • Рыжик (Илья Фрэз, приключения, семейный, 1960) [DVDRip, Не требуется]
  • Приключения Толи Клюквина (Виктор Эйсымонт, комедия, семейный, 1964) [DVDRi ...
  • Сапоги (Владимир Немоляев, короткометражка, драма, комедия, 1957) [DVDRip, ...
  • Пакет (Владимир Назаров, комедия, приключения, семейный, 1965) [DVDRip, Не ...
  • Город мастеров (Владимир Бычков, фэнтези, приключения, семейный, история, 1 ...
  • Порожний рейс (Владимир Венгеров, драма, 1962) [DVDRip, Не требуется]
  • Суд (Аида Манасарова, Владимир Скуйбин, драма, детектив, 1963) [DVDRip, Не ...
  • Таинственный остров (Эдуард Пенцлин, фантастика, приключения, семейный, 194 ...
  • Сотрудник ЧК (Борис Волчек, боевик, история, 1963) [DVDRip, Не требуется]
  • Донская повесть (Владимир Фетин, драма, 1964) [DVDRip, Не требуется]
  • Драгоценный подарок (Александр Роу, семейный, 1956) [DVDRip, Не требуется]
  • Чудак-человек (Владимир Кочетов, комедия, 1962) [DVDRip, Не требуется]
  • Р.В.С. (Алексей Мороз, военный, 1977) [DVDRip, (2х)Оригинал (русский)]
  • Вера, надежда, любовь (Владимир Грамматиков, приключения, 1984) [DVDRip, Не ...
  • Максимка (Владимир Браун, приключения, 1953) [DVDRip, Не требуется]
  • Мексиканец (Владимир Каплуновский, драма, 1955) [DVDRip, Не требуется]
  • К Черному морю (Андрей Тутышкин, мелодрама, комедия, 1957) [DVDRip, Не треб ...
  • Информация
    Посетители, находящиеся в группе Гости, не могут оставлять комментарии к данной публикации.