вход на сайт

Имя пользователя :
Пароль :

Восстановление пароля Регистрация
Не забудь... станция Луговая (Никита Курихин, Леонид Менакер, драма, мелодрама, 1966) [DVDRip, Не требуется]
Рейтинг:
(голосов: 1)



[img]{THEME}/images/logopost.png[/img]



Не забудь... станция Луговая

Год выпуска: 1966
Страна: СССР
Производство: Ленфильм
Жанр: драма, мелодрама

Режиссёр: Никита Курихин, Леонид Менакер
В ролях: Георгий Юматов, Алла Чернова, Валентина Владимирова, Валентина Кибардина, Пётр Меркурьев, Муза Крепкогорская, Олег Белов, Николай Корн, Елизавета Уварова, Вера Будрейко

Перевод: Не требуется
Субтитры: Отсутствуют

Описание:
Война. На небольшой станции застряли воинский эшелон и поезд с беженцами. Несколько дней провели вместе молодой лейтенант и недавняя школьница, а потом, расставаясь, они условились писать друг другу на станцию Луговая…


Дополнительно:
MediaInfo ▼Text
Общее
Полное имя :K:Не забудь станция ЛуговаяStancyya Lugovaya.1966.avi
Формат :AVI
Размер :741 MiB
Продолжительность :01:19:03.528
Общий поток :1 310 Kbps
Программа кодирования :VirtualDubMod 1.5.10.2 (build 2540/release)
Библиотека кодирования :VirtualDubMod build 2540/release

Видео
Идентификатор :0
Формат :MPEG-4 Visual
Профиль формата :Advanced [email protected]
Параметр BVOP формата :2
Параметр Qpel формата :No
Параметр GMC формата :0
Параметр Matrix формата :Custom
Идентификатор кодека :XVID
Продолжительность :1h 19mn 3s 520ms
Битрейт :1 173 Kbps
Ширина :672 pixels
Высота :304 pixels
Соотношение сторон :2.211
Частота кадров :25.000 fps
Глубина цвета :8 bits
Подвыборка цветности :4:2:0
Цветовое пространство :YUV
Тип развертки :Progressive
Бит/(Пиксели*Кадры) :0.230
Размер потока :663 MiB (89%)
Библиотека кодирования :XviD0050

Аудио #1
Идентификатор :1
Формат :MPEG Audio
Идентификатор кодека :55
Продолжительность :01:19:03.528
Вид битрейта :Constant
Битрейт :128 Kbps
Канал(ы) :2 channels
Частота :48.0 KHz
Метод сжатия :Lossy
Размер потока :72.4 MiB (10%)



Тех. данные:
Качество:DVDRip
Продолжительность:01:19:08 час

Формат: AVI
Видео кодек: XviD
Аудио кодек: MPA1L3
Видео: 672 x 304 (2.2:1), 25.000 fps, 1 173 Kbps
5e7a833dbcdcb758b7819d0e8ed1792aa1750e22Не забудь... станция Луговая (Никита Курихин, Леонид Менакер, драма, мелодрама, 1966) [DVDRip, Не требуется] Не забудь... станция Луговая (Никита Курихин, Леонид Менакер, драма, мелодрама, 1966) [DVDRip, Не требуется] " />

Аплоадер: Админ, дата: 7-02-2013, 19:25, торрент скачан: 359 раз

Понравилась раздача? Посмотрите эти:
  • Жаворонок (Никита Курихин, Леонид Менакер, драма, военный, 1964) [DVDRip, Н ...
  • Июльский дождь (Марлен Хуциев, драма, 1966) [DVDRip, Не требуется]
  • С любимыми не расставайтесь (Павел Арсенов, драма, мелодрама, 1979) [DVDRip ...
  • Молодая жена (Леонид Менакер, драма, мелодрама, 1978) [DVDRip, Не требуется ...
  • Дневной поезд (Инесса Селезнева, драма, 1976) [DVDRip, Не требуется]
  • Высота (Александр Зархи, мелодрама, 1957) [DVDRip, Не требуется]
  • Выстрел (Наум Трахтенберг, драма, 1966) [DVDRip, Не требуется]
  • Последняя жертва (Петр Тодоровский, драма, мелодрама, 1975) [DVDRip, Не тре ...
  • Афоня (Георгий Данелия, драма, мелодрама, комедия, 1975) [DVDRip, Не требуе ...
  • Земля отцов (Шакен Айманов, драма, 1966) [DVDRip, Не требуется]
  • Неподсуден (Владимир Краснопольский, Валерий Усков, драма, 1969) [DVDRip, Н ...
  • Начальник Чукотки (Виталий Мельников, драма, комедия, приключения, история, ...
  • Капитанская дочка (Владимир Каплуновский, драма, 1958) [DVDRip, Не требуетс ...
  • Чудный характер (Константин Воинов, драма, 1970) [DVDRip, Не требуется]
  • Суета сует (Алла Сурикова, комедия, 1979) [DVDRip, Не требуется]
  • Снежная королева (Геннадий Казанский, фэнтези, драма, приключения, семейный ...
  • Лизелотта из Пфальца / Liselotte von der Pfalz (Курт Хофманн, мелодрама, ко ...
  • Андрей Рублев (Андрей Тарковский, Драма, история, 1966) [HDRip, Не требуетс ...
  • Дядюшкин сон (Константин Воинов, драма, 1966) [DVDRip, Не требуется]
  • В добрый час! (Виктор Эйсымонт, драма, мелодрама, 1956) [DVDRip, Не требует ...
  • Информация
    Посетители, находящиеся в группе Гости, не могут оставлять комментарии к данной публикации.