вход на сайт

Имя пользователя :
Пароль :

Восстановление пароля Регистрация
Неисправимый лгун (Виллен Азаров, комедия, 1973) [DVDRip, Не требуется]
Рейтинг:
(голосов: 1)



[img]{THEME}/images/logopost.png[/img]



Неисправимый лгун

Год выпуска: 1973
Страна: СССР
Производство: Мосфильм
Жанр: комедия

Режиссёр: Виллен Азаров
В ролях: Георгий Вицин, Инна Макарова, Николай Прокопович, Эдита Пьеха, Владимир Этуш, А. Акекперов, Р. Байер, Лариса Барабанова, Валентина Березуцкая, Александра Дорохина

Перевод: Не требуется
Субтитры: Отсутствуют

Описание:
Доброму и доверчивому парикмахеру давно уже никто не верит, когда он подробнейшим образом оправдывается за свои опоздания. Но ведь с ним действительно каждый раз происходит что-то необыкновенное: то обед у эмира Бурухтании, то встреча с Эдитой Пьехой, то он мчится за мячиком своего соседа Вовки навстречу потоку автомашин…


Дополнительно:
MediaInfo ▼Text
Общее
Полное имя :L:Неисправимый лгунНеисправимый лгун.avi
Формат :AVI
Размер :692 MiB
Продолжительность :01:14:25.800
Общий поток :1 300 Kbps
Программа кодирования :VirtualDubMod 1.5.10.2 (build 2540/release)
Библиотека кодирования :VirtualDubMod build 2540/release

Видео
Идентификатор :0
Формат :MPEG-4 Visual
Параметр BVOP формата :1
Параметр Qpel формата :No
Параметр GMC формата :0
Параметр Matrix формата :Default (H.263)
Идентификатор кодека :DX50
Продолжительность :1h 14mn 25s 800ms
Битрейт :1 194 Kbps
Ширина :672 pixels
Высота :368 pixels
Соотношение сторон :1.826
Частота кадров :25.000 fps
Глубина цвета :8 bits
Подвыборка цветности :4:2:0
Цветовое пространство :YUV
Тип развертки :Progressive
Бит/(Пиксели*Кадры) :0.193
Размер потока :636 MiB (92%)
Библиотека кодирования :DivX503b1031p

Аудио #1
Идентификатор :1
Формат :MPEG Audio
Идентификатор кодека :55
Продолжительность :01:14:25.749
Вид битрейта :Constant
Битрейт :96.0 Kbps
Канал(ы) :1 channel
Частота :44.1 KHz
Метод сжатия :Lossy
Размер потока :51.1 MiB (7%)Тех. данные:
Качество:DVDRip
Продолжительность:01:14:20 час

Формат: AVI
Видео кодек: DivX
Аудио кодек: MPA1L3
Видео: 672 x 368 (16:9), 25.000 fps, 1 194 Kbps, 0.193 bit/pixel
Ау
70561cc5f09598c15528866f9be6b177633d449dНеисправимый лгун (Виллен Азаров, комедия, 1973) [DVDRip, Не требуется] Неисправимый лгун (Виллен Азаров, комедия, 1973) [DVDRip, Не требуется] " />

Аплоадер: Админ, дата: 6-02-2013, 18:28, торрент скачан: 359 раз

Понравилась раздача? Посмотрите эти:
  • Вас вызывает Таймыр (Алексей Коренев, комедия, 1970) [DVDRip, Не требуется] ...
  • Аленка (Борис Барнет, комедия, 1961) [DVDRip, Не требуется]
  • Открытая книга (Владимир Фетин, драма, биография, 1973) [DVDRip, Не требуе ...
  • Девушка джигит (Павел Боголюбов, комедия, 1955) [DVDRip, Не требуется]
  • Где это видано, где это слыхано (Валентин Горлов, короткометражка, комедия, ...
  • Чиполлино (Тамара Лисициан, семейный, 1973) [DVDRip, Не требуется]
  • Ход конем (Татьяна Лукашевич, комедия, 1962) [DVDRip, Не требуется]
  • Совсем пропащий (Георгий Данелия, приключения, 1973) [DVDRip, Не требуется] ...
  • Путь в "Сатурн" (Виллен Азаров, военный, 1967) [DVDRip, Не требуется]
  • Конец "Сатурна" (Виллен Азаров, Мосфильм, 1967) [DVDRip, Не требуется]
  • Бой после победы (2 части из 2) (Виллен Азаров, триллер, военный, 1972) [DV ...
  • Завтрак на траве (Николай Александрович, детский, комедия, 1979) [DVDRip, Н ...
  • Опекун (Эдгар Ходжикян, Альберт С. Мкртчян, комедия, 1970) [DVDRip, Не треб ...
  • Капитанская дочка (Владимир Каплуновский, драма, 1958) [DVDRip, Не требуетс ...
  • Конец "Сатурна"( Виллен Азаров, военный, 1967 год) [DVDrip, ориги ...
  • Солёный пёс (Николай Кошелев, драма, комедия, 1973) [DVDRip, Не требуется]
  • Печники (Виктор Храмов, драма, 1982) [DVDRip, Не требуется]
  • Мы с Вулканом (Валентин Перов, детский, семейный, 1973) [TVRip, Не требуетс ...
  • Я вас любил... (Илья Фрэз, мелодрама, комедия, 1967) [DVDRip, Не требуется] ...
  • Прощайте, фараоны! (Давид Черкасский, Вячеслав Винник, комедия, 1974) [DVDR ...
  • Неисправимый лгун (Виллен Азаров, Комедия, 1973) [DVDRip, Оригинал]
  • Афера / The Sting (Джордж Рой Хилл, комедия, криминал, 1973) [DVDRip, Профе ...
  • Взрослые дети (Виллен Азаров, драма, комедия, 1962) [DVDRip, Не требуется] ...
  • Добряки (Карен Шахназаров, комедия, 1979) [DVDRip, Не требуется]
  • За облаками – небо (Юрий Егоров, драма, 1973) [DVDRip, Не требуется]
  • Информация
    Посетители, находящиеся в группе Гости, не могут оставлять комментарии к данной публикации.