вход на сайт

Имя пользователя :
Пароль :

Восстановление пароля Регистрация
Неподсуден (Владимир Краснопольский, Валерий Усков, драма, 1969) [DVDRip, Не требуется]
Рейтинг:
(голосов: 1)



[img]{THEME}/images/logopost.png[/img]



Неподсуден

Год выпуска: 1969
Страна: СССР
Производство: Мосфильм
Жанр: драма

Режиссёр: Владимир Краснопольский, Валерий Усков
В ролях: Олег Стриженов, Людмила Максакова, Леонид Куравлёв, Ольга Сошникова, Светлана Светличная, Нина Агапова, Петр Глебов, Владимир Гусев, Николай Лиров, Юрий Мартынов

Перевод: Не требуется
Субтитры: Отсутствуют

Описание:
В ранней молодости летчика Егорова оклеветал его друг Сорокин, оставила любимая девушка. С тех пор прошло много лет. Девушка вышла замуж за Сорокина, они вырастили сына. Однажды все трое оказываются на борту лайнера, которым управляет Егоров. Эта встреча станет поворотной в судьбе каждого из героев…


Дополнительно:
MediaInfo ▼Text
Общее
Полное имя :J:1. РАЗДАЧАНеподсуденNepodsuden.(1969).avi
Формат :AVI
Размер :1.45 GiB
Продолжительность :01:22:23.000
Общий поток :2 518 Kbps
Программа кодирования :VirtualDubMod 1.5.10.2 (build 2540/release) VirtualDubMod build 2540/release

Видео
Идентификатор :0
Формат :MPEG-4 Visual
Профиль формата :Advanced [email protected]
Параметр BVOP формата :1
Параметр Qpel формата :No
Параметр GMC формата :0
Параметр Matrix формата :Default (MPEG)
Идентификатор кодека :XVID
Продолжительность :1h 22mn 23s 0ms
Битрейт :2 380 Kbps
Ширина :704 pixels
Высота :512 pixels
Соотношение сторон :1.375
Частота кадров :25.000 fps
Глубина цвета :8 bits
Подвыборка цветности :4:2:0
Цветовое пространство :YUV
Тип развертки :Progressive
Бит/(Пиксели*Кадры) :0.264
Размер потока :1.37 GiB (95%)
Библиотека кодирования :XviD0050

Аудио #1
Идентификатор :1
Формат :MPEG Audio
Идентификатор кодека :55
Продолжительность :01:22:22.992
Вид битрейта :Constant
Битрейт :128 Kbps
Канал(ы) :1 channel
Частота :48.0 KHz
Метод сжатия :Lossy
Размер потока :75.4 MiB (5%)
Язык :unТех. данные:
Качество:DVDRip
Продолжительность:01:22:20 час

Формат: AVI
Ви
692312f4f36d9d41c92a796df70cea208d18b8aaНеподсуден (Владимир Краснопольский, Валерий Усков, драма, 1969) [DVDRip, Не требуется] Неподсуден (Владимир Краснопольский, Валерий Усков, драма, 1969) [DVDRip, Не требуется] " />

Аплоадер: Админ, дата: 6-02-2013, 18:22, торрент скачан: 359 раз

Понравилась раздача? Посмотрите эти:
  • Нейтральные воды (Владимир Беренштейн, драма, 1968) [DVDRip, Не требуется]
  • Зимородок (Вячеслав Никифоров, военный, 1972) [DVDRip, Не требуется]
  • Хозяин тайги (Владимир Назаров, криминал, 1968) [DVDRip, Не требуется]
  • Последняя жертва (Петр Тодоровский, драма, мелодрама, 1975) [DVDRip, Не тре ...
  • Если есть паруса (Валентин Козачков, драма, 1969) [DVDRip, Не требуется]
  • Ночные забавы (2 части из 2. Реставрирован) (Владимир Краснопольский, Валер ...
  • Лес (Владимир Мотыль, драма, 1980) [DVDRip, Не требуется]
  • Левша (Сергей Овчаров, драма, комедия, 1986) [DVDRip, Не требуется]
  • Князь Игорь (Роман Тихомиров, мюзикл, приключения, 1969) [DVDRip, Не требуе ...
  • Капитанская дочка (Владимир Каплуновский, драма, 1958) [DVDRip, Не требуетс ...
  • Пиковая Дама (Роман Тихомиров, мюзикл, драма, 1961) [DVDRip, Не требуется]
  • Печники (Виктор Храмов, драма, 1982) [DVDRip, Не требуется]
  • Адъютант его превосходительства (5 частей из 5) (Евгений Ташков, мелодрама, ...
  • Бабушки надвое сказали (Валерий Харченко, Юрий Клебанов, комедия, 1979) [DV ...
  • Король-олень (Павел Арсенов, мюзикл, фэнтези, комедия, семейный, 1969) [DVD ...
  • Оглашению не подлежит (Хасан Бакаев, драма, 1987) [TVRip, Не требуется]
  • Ермак 1-5 серии из 5 (Владимир Краснопольский и Валерий Усков) [1996 г., Ис ...
  • Нина 1-4 серии из 8 DVD-Rip (Владимир Краснопольский, Валерий Усков) [2001 ...
  • Нина 5-8 серии из 8 DVD-Rip (Владимир Краснопольский, Валерий Усков) [2001 ...
  • Паутина 2 // Эпизоды с 1 по 12 (из 12) (Владимир Краснопольский, Валерий Ус ...
  • Женить миллионера! // Эпизоды с 1 по 4 (из 4) (Владимир Краснопольский, Вал ...
  • Ермак (Владимир Краснопольский, Валерий Усков, драма, приключения, история, ...
  • Кутузов (Владимир Петров, драма, 1943) [DVDRip, Не требуется]
  • Мексиканец (Владимир Каплуновский, драма, 1955) [DVDRip, Не требуется]
  • Гарем Степана Гуслякова (Алишер Хамдамов, драма, 1989) [TVRip, Не требуетс ...
  • Информация
    Посетители, находящиеся в группе Гости, не могут оставлять комментарии к данной публикации.