вход на сайт

Имя пользователя :
Пароль :

Восстановление пароля Регистрация
Объяснение в любви (2 части из 2) (Илья Авербах, мелодрама, 1977) [DVDRip, Не требуется]
Рейтинг:
(голосов: 1)



[img]{THEME}/images/logopost.png[/img]



Объяснение в любви (2 части из 2)

Год выпуска: 1977
Страна: СССР
Производство: Ленфильм
Жанр: мелодрама

Режиссёр: Илья Авербах
В ролях: Юрий Богатырев, Бруно Фрейндлих, Никита Михайловский, Дарья Михайлова, Ангелина Степанова, Эва Шикульска, Денис Кучер, Иван Бортник, Светлана Крючкова, Кирилл Лавров

Перевод: Не требуется
Субтитры: Отсутствуют

Описание:
Уже пожилым человеком вспоминает герой фильма свою молодость, встречу с женщиной, ставшей его судьбой, первые писательские командировки по молодой Стране Советов, то, как учился он думать, любить и прощать…


Дополнительно:
MediaInfo ▼Text
"1 часть" ▼Общее
Полное имя :K:Объяснение в любвиОбъяснение в любвиOb`yasnenie v lubvi 1.avi
Формат :AVI
Размер :804 MiB
Продолжительность :01:08:02.808
Общий поток :1 653 Kbps
Программа кодирования :VirtualDubModRus 1.5.10.2 (build 2542/release)
Библиотека кодирования :VirtualDubMod build 2542/release

Видео
Идентификатор :0
Формат :MPEG-4 Visual
Профиль формата :Advanced [email protected]
Параметр BVOP формата :2
Параметр Qpel формата :No
Параметр GMC формата :0
Параметр Matrix формата :Default (MPEG)
Идентификатор кодека :XVID
Продолжительность :1h 8mn 2s 800ms
Битрейт :1 515 Kbps
Ширина :656 pixels
Высота :480 pixels
Соотношение сторон :1.367
Частота кадров :25.000 fps
Глубина цвета :8 bits
Подвыборка цветности :4:2:0
Цветовое пространство :YUV
Тип развертки :Progressive
Бит/(Пиксели*Кадры) :0.192
Размер потока :737 MiB (92%)
Библиотека кодирования :XviD0050

Аудио #1
Идентификатор :1
Формат :MPEG Audio
Идентификатор кодека :55
Продолжительность :01:08:02.808
Вид битрейта :Constant
Битрейт :128 Kbps
Канал(ы) :2 channels
Частота :48.0 KHz
Метод сжатия :Lossy
Размер потока :62.3 MiB (8%)

"2 часть" ▼Общее
Полное имя :K:Объяснение в любвиОбъяснение в любвиOb`yasnenie v lubvi 2.avi
Формат
1f76271c96abc6fe9a15ec9fe24683596ba71791Объяснение в любви (2 части из 2) (Илья Авербах, мелодрама, 1977) [DVDRip, Не требуется] Объяснение в любви (2 части из 2) (Илья Авербах, мелодрама, 1977) [DVDRip, Не требуется] " />

Аплоадер: Админ, дата: 5-02-2013, 07:03, торрент скачан: 359 раз

Понравилась раздача? Посмотрите эти:
  • Дни хирурга Мишкина (3 части из 3) (Вадим Зобин, драма, 1967) [DVDRip, Не т ...
  • Будни и праздники Серафимы Глюкиной (2 части из 2) (Ростислав Горяев, драма ...
  • Анна Каренина (2 части из 2) (Александр Зархи, драма, мелодрама, 1967) [DVD ...
  • Ошибка резидента (2 части из 2) (Вениамин Дорман, детектив, 1968) [DVDRip, ...
  • Возвращение резидента (2 части из 2) (Вениамин Дорман, триллер, 1982) [DVDR ...
  • Мир дому твоему (2 части из 2) (Константин Райкин, Аркадий Райкин, Марк Орл ...
  • Люди и манекены (4 части из 4) (Виктор Храмов, Аркадий Райкин, комедия, 197 ...
  • Дон Сезар де Базан (2 части из 2) (Ян Фрид, мюзикл, комедия, 1989) [DVDRip, ...
  • Степень риска (Илья Авербах, драма, 1968) [DVDRip, Не требуется]
  • Звезда пленительного счастья (2 части из 2) (Владимир Мотыль, драма, мелодр ...
  • Карнавал (2 части из 2) (Татьяна Лиознова, мюзикл, комедия, 1981) [DVDRip, ...
  • Судьба (2 части из 2) (Евгений Матвеев, драма, мелодрама, 1977) [DVDRip, Не ...
  • Степь (2 части из 2) (Сергей Бондарчук, драма, история, 1977) [DVDRip, Не т ...
  • Я вас любил... (Илья Фрэз, мелодрама, комедия, 1967) [DVDRip, Не требуется] ...
  • Фантазии Фарятьева (Илья Авербах, драма, комедия, 1979) [DVDRip, Не требует ...
  • Сибириада (4 части из 4) (Андрей Кончаловский, драма, военный, история, 197 ...
  • Ханума (2 части из 2) (Георгий Товстоногов, мюзикл, комедия, 1978) [DVDRip, ...
  • Почти смешная история (2 части из 2) (Петр Фоменко, мелодрама, комедия, 197 ...
  • Председатель (2 части из 2) (Алексей Салтыков, драма, 1964) [DVDRip, Не тре ...
  • Тихий Дон (3 части из 3) (Сергей Герасимов, драма, военный, 1957) [DVDRip, ...
  • Подпольный обком действует (4 части из 4) (Анатолий Буковский, военный, 197 ...
  • В лесах под Ковелем (3 части из 3) (Юрий Тупицкий, военный, история, 1984) ...
  • Гений (2 части из 2) (Виктор Сергеев, Комедия, криминал, 1991) [DVDRip, Не ...
  • Дядюшкин сон (2 части из2) (Александр Орлов, драма, комедия, 1981) [DVDRip, ...
  • Неизвестный солдат (3 части из 3) (Григорий Аронов, Вадим Зобин, драма, 198 ...
  • Информация
    Посетители, находящиеся в группе Гости, не могут оставлять комментарии к данной публикации.