вход на сайт

Имя пользователя :
Пароль :

Восстановление пароля Регистрация
Опасно для жизни! (Леонид Гайдай, комедия, 1985) [DVDRip, Не требуется]
Рейтинг:
(голосов: 1)



[img]{THEME}/images/logopost.png[/img]



Опасно для жизни!

Год выпуска: 1985
Страна: СССР
Производство: Мосфильм
Жанр: комедия

Режиссёр: Леонид Гайдай
В ролях: Леонид Куравлёв, Лариса Удовиченко, Татьяна Кравченко, Георгий Вицин, Тамаз Толорая, Нина Гребешкова, Борислав Брондуков, Владимир Носик, Михаил Кокшенов, Сергей Филиппов

Перевод: Не требуется
Субтитры: Отсутствуют

Описание:
Спартак Молодцов — человек предельно аккуратный, непримиримый к любому беспорядку. Обнаружив однажды оборванный провод высоковольтной линии, он, разумеется, не мог пройти мимо. Но, как известно, «ни одно доброе дело не остается безнаказанным» — теперь Спартак опаздывает на работу, любимая сестра собирается съехать, а невероятно активный грузин старается ввернуть ему взятку. Тем более, чинить провод никто и не собирается…


Дополнительно:
MediaInfo ▼Text
Общее
Полное имя :K:Опасно для жизни!Opasno dlya zhizni.DVDRip.avi
Формат :AVI
Размер :745 MiB
Продолжительность :01:27:46.520
Общий поток :1 186 Kbps
Программа кодирования :VirtualDubModRus 1.5.10.2 (build 2542/release)
Библиотека кодирования :VirtualDubMod build 2542/release

Видео
Идентификатор :0
Формат :MPEG-4 Visual
Параметр BVOP формата :1
Параметр Qpel формата :No
Параметр GMC формата :0
Параметр Matrix формата :Default (H.263)
Идентификатор кодека :DX50
Продолжительность :1h 27mn 46s 520ms
Битрейт :1 048 Kbps
Ширина :640 pixels
Высота :272 pixels
Соотношение сторон :2.353
Частота кадров :25.000 fps
Глубина цвета :8 bits
Подвыборка цветности :4:2:0
Цветовое пространство :YUV
Тип развертки :Progressive
Бит/(Пиксели*Кадры) :0.241
Размер потока :658 MiB (88%)
Библиотека кодирования :DivX503b2676p

Аудио #1
Идентификатор :1
Формат :MPEG Audio
Идентификатор кодека :55
Продолжительность :01:27:46.512
Вид битрейта :Constant
Битрейт :128 Kbps
Канал(ы) :2 channels
Частота :48.0 KHz
Метод сжатия :Lossy
Размер потока :80.4 MiB (11%)Тех. данные:
Качество:DVDRip
Продолжительность:01:27:40 час

Формат: AVI
В
02a052d5c05bf33ab7f6eb5ed1b99614ebdd6dfaОпасно для жизни! (Леонид Гайдай, комедия, 1985) [DVDRip, Не требуется] Опасно для жизни! (Леонид Гайдай, комедия, 1985) [DVDRip, Не требуется] " />

Аплоадер: Админ, дата: 3-02-2013, 17:49, торрент скачан: 359 раз

Понравилась раздача? Посмотрите эти:
  • Жаворонок (Никита Курихин, Леонид Менакер, драма, военный, 1964) [DVDRip, Н ...
  • Нейтральные воды (Владимир Беренштейн, драма, 1968) [DVDRip, Не требуется]
  • Начало (Глеб Панфилов, мелодрама, комедия, 1970) [DVDRip, Не требуется]
  • Выйти замуж за капитана (Виталий Мельников, мелодрама, комедия, 1985) [DVDR ...
  • Поезд идёт на восток (Цветной) (Юлий Райзман, мелодрама, комедия, 1947) [DV ...
  • Пакет (Владимир Назаров, комедия, приключения, семейный, 1965) [DVDRip, Не ...
  • Афоня (Георгий Данелия, драма, мелодрама, комедия, 1975) [DVDRip, Не требуе ...
  • Воскресный папа (Наум Бирман, драма, семейный, 1985) [DVDRip, Не требуется] ...
  • Левша (Сергей Овчаров, драма, комедия, 1986) [DVDRip, Не требуется]
  • Не может быть! (Леонид Гайдай, мюзикл, мелодрама, комедия, 1975) [DVDRip-AV ...
  • Пес Барбос и необычный кросс / Самогонщики / «Сто грамм» для храбрости (Лео ...
  • Ты и я (Лариса Шепитько, драма, 1971) [DVDRip, Не требуется]
  • Энергичные люди (2 части из 2) (Владимир Захаров, комедия, 1988) [DVDRip, Н ...
  • Карусель (Михаил Швейцер, комедия, 1970) [DVDRip, Не требуется]
  • Совершенно серьезно (Леонид Гайдай, Эльдар Рязанов, Владимир Семаков, коме ...
  • Спортлото-82 (Леонид Гайдай, комедия, приключения, 1982) [DVDRip, Не требуе ...
  • Суета сует (Алла Сурикова, комедия, 1979) [DVDRip, Не требуется]
  • Ханума (2 части из 2) (Георгий Товстоногов, мюзикл, комедия, 1978) [DVDRip, ...
  • Опасно для жизни (Леонид Гайдай, Комедия, 1985 г) [DVDRip, оригинал]
  • Деловые люди (полная реставрация) (Леонид Гайдай, комедия, драма, 1962) [DV ...
  • Живите в радости (Леонид Миллионщиков, комедия, 1978) [DVDRip, Не требуется ...
  • Голубая стрела (Леонид Эстрин, боевик, 1958) [DVDRip, Не требуется]
  • Максим Перепелица (Анатолий Граник, комедия, 1955) [DVDRip, Не требуется]
  • Мексиканец (Владимир Каплуновский, драма, 1955) [DVDRip, Не требуется]
  • К Черному морю (Андрей Тутышкин, мелодрама, комедия, 1957) [DVDRip, Не треб ...
  • Информация
    Посетители, находящиеся в группе Гости, не могут оставлять комментарии к данной публикации.