вход на сайт

Имя пользователя :
Пароль :

Восстановление пароля Регистрация
Она вас любит (Семен Деревянский, Рафаил Суслович, мелодрама, комедия, 1956) [DVDRip, Не требуется]
Рейтинг:
(голосов: 1)



[img]{THEME}/images/logopost.png[/img]



Она вас любит

Год выпуска: 1956
Страна: СССР
Производство: Ленфильм
Жанр: мелодрама, комедия

Режиссёр: Семен Деревянский, Рафаил Суслович
В ролях: Георгий Вицин, Инна Кмит, Лидия Сухаревская, Тамара Носова, Александр Ширвиндт, Игорь Дмитриев, Аркадий Толбузин, Константин Сорокин, Виктор Колпаков, Лидия Атманаки

Перевод: Не требуется
Субтитры: Отсутствуют

Описание:
Работник зоопарка, милый и застенчивый Костя Канарейкин, увидел на обложке «Огонька» портрет спортсменки и влюбился в нее. Между ними завязывается переписка, но по ошибке девушка вместо фотографии своего друга получает портрет красивого актера.


Дополнительно:
MediaInfo ▼Text
Общее
Полное имя :D:. РАЗДАЧАОна вас любитShe loves you.DVDRip.avi
Формат :AVI
Размер :1.26 GiB
Продолжительность :01:19:58.144
Общий поток :2 250 Kbps
Программа кодирования :Lavf52.78.4

Видео
Идентификатор :0
Формат :MPEG-4 Visual
Профиль формата :Advanced [email protected]
Параметр BVOP формата :2
Параметр Qpel формата :No
Параметр GMC формата :0
Параметр Matrix формата :Default (H.263)
Идентификатор кодека :XVID
Продолжительность :1h 19mn 57s 960ms
Битрейт :1 853 Kbps
Ширина :704 pixels
Высота :544 pixels
Соотношение сторон :1.294
Частота кадров :25.000 fps
Глубина цвета :8 bits
Подвыборка цветности :4:2:0
Цветовое пространство :YUV
Тип развертки :Progressive
Бит/(Пиксели*Кадры) :0.194
Размер потока :1.04 GiB (82%)
Библиотека кодирования :XviD0050

Аудио #1
Идентификатор :1
Формат :AC-3
Формат/Информация :Audio Coding 3
Идентификатор кодека :2000
Продолжительность :01:19:58.144
Вид битрейта :Constant
Битрейт :384 Kbps
Канал(ы) :5 channels
Расположение каналов :Front: L C R, Side: L R
Частота :48.0 KHz
Битовая глубина :16 bits
Метод сжатия :Lossy
Размер потока :220 MiB (17%)Тех. данные:
Качество:DVDRip
Продолжител
4666ef17e6a9c788918adfc77d8ecdb6d1c0a04fОна вас любит (Семен Деревянский, Рафаил Суслович, мелодрама, комедия, 1956) [DVDRip, Не требуется] Она вас любит (Семен Деревянский, Рафаил Суслович, мелодрама, комедия, 1956) [DVDRip, Не требуется] " />

Аплоадер: Админ, дата: 3-02-2013, 17:44, торрент скачан: 359 раз

Понравилась раздача? Посмотрите эти:
  • На подмостках сцены (Константин Юдин, драма, комедия, 1956) [DVDRip, Не тре ...
  • Начало (Глеб Панфилов, мелодрама, комедия, 1970) [DVDRip, Не требуется]
  • Медовый месяц (Надежда Кошеверова, мелодрама, комедия, 1956) [DVDRip, Не тр ...
  • Ко мне, Мухтар! (Семен Туманов, В. Тиунова, драма, 1964) [DVDRip, Не требуе ...
  • Дама с собачкой (Иосиф Хейфиц, драма, мелодрама, 1959) [DVDRip, Не требуетс ...
  • Убийство на улице Данте (Михаил Ромм, драма, 1956) [DVDRip, Не требуется]
  • Прощай, шпана замоскворецкая... (Александр Панкратов, драма, мелодрама, 198 ...
  • Последняя жертва (Петр Тодоровский, драма, мелодрама, 1975) [DVDRip, Не тре ...
  • Поезд идёт на восток (Цветной) (Юлий Райзман, мелодрама, комедия, 1947) [DV ...
  • По главной улице с оркестром (Петр Тодоровский, мюзикл, мелодрама, комедия, ...
  • Иван да Марья (Борис Рыцарев, фэнтези, мелодрама, комедия, семейный, музыка ...
  • Опекун (Эдгар Ходжикян, Альберт С. Мкртчян, комедия, 1970) [DVDRip, Не треб ...
  • Осенний марафон (Георгий Данелия, драма, мелодрама, комедия, 1979) [DVDRip, ...
  • Ой, вы, гуси... (Лидия Боброва, Драма, 1991) [DVDRip, Не требуется]
  • Моя любовь (Владимир Корш-Саблин, мюзикл, мелодрама, комедия, 1940) [DVDRip ...
  • Мистер Икс (Юлий Хмельницкий, мюзикл, мелодрама, комедия, 1958) [DVDRip, Не ...
  • Очередной рейс (Рафаил Гольдин, драма, 1958) [DVDRip, Не требуется]
  • Танкер «Дербент» (Александр Файнциммер, приключения, 1940) [DVDRip, Не треб ...
  • Тень (Реставрация) (Надежда Кошеверова, фэнтези, драма, мелодрама, комедия, ...
  • Старомодная комедия (Эра Савельева, Татьяна Березанцева, мелодрама, 1978) [ ...
  • Хозяйка гостиницы (Михаил Названов, комедия, 1956) [DVDRip, Не требуется]
  • Драгоценный подарок (Александр Роу, семейный, 1956) [DVDRip, Не требуется]
  • Запасной игрок (Семен Тимошенко, комедия, спорт, 1955) [DVDRip, Не требуетс ...
  • В добрый час! (Виктор Эйсымонт, драма, мелодрама, 1956) [DVDRip, Не требует ...
  • К Черному морю (Андрей Тутышкин, мелодрама, комедия, 1957) [DVDRip, Не треб ...
  • Информация
    Посетители, находящиеся в группе Гости, не могут оставлять комментарии к данной публикации.