вход на сайт

Имя пользователя :
Пароль :

Восстановление пароля Регистрация
Осенний марафон (Георгий Данелия, драма, мелодрама, комедия, 1979) [DVDRip, Не требуется]
Рейтинг:
(голосов: 1)



[img]{THEME}/images/logopost.png[/img]



Осенний марафон

Год выпуска: 1979
Страна: СССР
Производство: Ленфильм
Жанр: драма, мелодрама, комедия

Режиссёр: Георгий Данелия
В ролях: Олег Басилашвили, Наталья Гундарева, Евгений Леонов, Марина Неёлова, Николай Крючков, Ольга Богданова, Борислав Брондуков, Владимир Фирсов, Владимир Грамматиков, Людмила Иванова

Перевод: Не требуется
Субтитры: Отсутствуют

Описание:
У талантливого педагога и переводчика Бузыкина нерешительный характер. Он не может оставить жену и уйти к любимой женщине, не может отказать эксплуатирующей его талант сокурснице, терпит посещения доморощенного философа-алкаша, а когда, наконец, решается на смелый шаг — терпит фиаско, так как по природе мягок и податлив, как воск.


Дополнительно:
MediaInfo ▼Text
Общее
Полное имя :J:1. РАЗДАЧАОсенний марафонОсенний.марафон.(1979).DVDRip.avi
Формат :AVI
Размер :1.46 GiB
Продолжительность :01:28:38.592
Общий поток :2 352 Kbps

Видео
Идентификатор :0
Формат :MPEG-4 Visual
Профиль формата :Advanced [email protected]
Параметр BVOP формата :1
Параметр Qpel формата :No
Параметр GMC формата :0
Параметр Matrix формата :Default (MPEG)
Идентификатор кодека :XVID
Продолжительность :1h 28mn 38s 560ms
Битрейт :1 896 Kbps
Ширина :704 pixels
Высота :528 pixels
Соотношение сторон :1.333
Частота кадров :25.000 fps
Глубина цвета :8 bits
Подвыборка цветности :4:2:0
Цветовое пространство :YUV
Тип развертки :Progressive
Бит/(Пиксели*Кадры) :0.204
Размер потока :1.17 GiB (81%)
Библиотека кодирования :XviD0050

Аудио #1
Идентификатор :1
Формат :AC-3
Формат/Информация :Audio Coding 3
Идентификатор кодека :2000
Продолжительность :01:28:38.592
Вид битрейта :Constant
Битрейт :448 Kbps
Канал(ы) :6 channels
Расположение каналов :Front: L C R, Side: L R, LFE
Частота :48.0 KHz
Битовая глубина :16 bits
Метод сжатия :Lossy
Размер потока :284 MiB (19%)Тех. данные:
Качество:D
56f96d0f10ce313d49733a17c8c6316ea5334d01Осенний марафон (Георгий Данелия, драма, мелодрама, комедия, 1979) [DVDRip, Не требуется] Осенний марафон (Георгий Данелия, драма, мелодрама, комедия, 1979) [DVDRip, Не требуется] " />

Аплоадер: Админ, дата: 2-02-2013, 06:22, торрент скачан: 359 раз

Понравилась раздача? Посмотрите эти:
  • Афоня (Георгий Данелия, драма, мелодрама, комедия, 1975) [BDRip, Не требует ...
  • Осенний марафон (Георгий Данелия, драма, мелодрама, комедия, 1979) [DVDRip, ...
  • Сережа (Георгий Данелия, Игорь Таланкин, драма, 1960) [DVDRip, Не требуется ...
  • Афоня (Георгий Данелия, драма, мелодрама, комедия, 1975) [HDTV 1080i, Не тр ...
  • Божья тварь (Галина Данелия-Юркова, комедия, 1991) [DVDRip, Не требуется]
  • История кавалера де Грие и Манон Леско (Роман Виктюк, драма, мелодрама, 197 ...
  • Француз (Галина Данелия-Юркова, драма, комедия, 1988) [DVDRip, Не требуется ...
  • Старшина (Николай Кошелев, драма, 1979) [DVDRip, Не требуется]
  • Совсем пропащий (Георгий Данелия, приключения, 1973) [DVDRip, Не требуется] ...
  • Ах, водевиль, водевиль... (Георгий Юнгвальд-Хилькевич, мюзикл, комедия, 197 ...
  • Афоня (Георгий Данелия, драма, мелодрама, комедия, 1975) [DVDRip, Не требуе ...
  • Завтрак на траве (Николай Александрович, детский, комедия, 1979) [DVDRip, Н ...
  • Не горюй! (Георгий Данелия, драма, 1968) [DVDRip, Профессиональный (полное ...
  • Осенний марафон (Георгий Данелия, трагикомедия, 1979) [DVDRip]
  • Сватовство гусара (Светлана Дружинина, мюзикл, мелодрама, комедия, 1979) [D ...
  • Паспорт (Георгий Данелия, комедия, 1990) [DVDRip, Не требуется]
  • Бабушки надвое сказали (Валерий Харченко, Юрий Клебанов, комедия, 1979) [DV ...
  • Тень (Реставрация) (Надежда Кошеверова, фэнтези, драма, мелодрама, комедия, ...
  • Слезы капали (Георгий Данелия, драма, 1982) [DVDRip, Не требуется]
  • Тридцать три (Георгий Данелия, комедия, 1965) [DVDRip, Не требуется]
  • Суета сует (Алла Сурикова, комедия, 1979) [DVDRip, Не требуется]
  • Фантазии Фарятьева (Илья Авербах, драма, комедия, 1979) [DVDRip, Не требует ...
  • Путь к причалу (Георгий Данелия, драма, 1963) [DVDRip, Не требуется]
  • Пограничный пес Алый (Юлий Файт, драма, 1979) [DVDRip, Не требуется]
  • Добряки (Карен Шахназаров, комедия, 1979) [DVDRip, Не требуется]
  • Информация
    Посетители, находящиеся в группе Гости, не могут оставлять комментарии к данной публикации.