вход на сайт

Имя пользователя :
Пароль :

Восстановление пароля Регистрация
Освобождение (Александр Довженко, Юлия Солнцева, документальный, 1940) [DVDRip, Не требуется]
Рейтинг:
(голосов: 1)



[img]{THEME}/images/logopost.png[/img]



Освобождение

Год выпуска: 1940
Страна: СССР
Производство: Киевская киностудия
Жанр: документальный

Режиссёр: Александр Довженко, Юлия Солнцева
В ролях: Отсутствуют

Перевод: Не требуется
Субтитры: Отсутствуют

Описание:
Снятый очевидцами событий, документальный фильм (историческая хроника) посвящен вступлению советских войск на территорию Западной Украины и освобождению украинских и белорусских земель от гнета польских панов и воссоединению народов-братьев в единую семью.


Дополнительно:
MediaInfo ▼Text
Общее
Полное имя :J:Освобождение.1940Освобождение.1940.avi
Формат :AVI
Размер :1.08 GiB
Продолжительность :01:01:01.400
Общий поток :2 542 Kbps
Программа кодирования :FairUse Wizard - http://fairusewizard.com
Библиотека кодирования :The best and REALLY easy backup tool

Видео
Идентификатор :0
Формат :MPEG-4 Visual
Профиль формата :Advanced [email protected]
Параметр BVOP формата :1
Параметр Qpel формата :No
Параметр GMC формата :0
Параметр Matrix формата :Default (H.263)
Идентификатор кодека :XVID
Продолжительность :1h 1mn 1s 400ms
Битрейт :1 887 Kbps
Ширина :688 pixels
Высота :512 pixels
Соотношение сторон :1.344
Частота кадров :25.000 fps
Глубина цвета :8 bits
Подвыборка цветности :4:2:0
Цветовое пространство :YUV
Тип развертки :Progressive
Бит/(Пиксели*Кадры) :0.214
Размер потока :824 MiB (74%)
Библиотека кодирования :XviD0041

Аудио #1
Идентификатор :1
Формат :AC-3
Формат/Информация :Audio Coding 3
Идентификатор кодека :2000
Продолжительность :01:01:01.056
Вид битрейта :Constant
Битрейт :448 Kbps
Канал(ы) :6 channels
Расположение каналов :Front: L C R, Side: L R, LFE
Частота :48.0 KHz
Битовая глубина :16 bits
Метод сжатия :Lossy
Размер потока :196 MiB (18%)

Аудио #2
Идентификатор :2
Формат
58f2cb8dcce6755421f8d30ca3d261083c02738bОсвобождение (Александр Довженко, Юлия Солнцева, документальный, 1940) [DVDRip, Не требуется] Освобождение (Александр Довженко, Юлия Солнцева, документальный, 1940) [DVDRip, Не требуется] " />

Аплоадер: Админ, дата: 2-02-2013, 06:18, торрент скачан: 359 раз

Понравилась раздача? Посмотрите эти:
  • Бой под Соколом (Александр Разумный, военный, 1942) [DVDRip, Не требуется]
  • Каштанка (Роман Балаян, приключения, 1975) [DVDRip, Не требуется]
  • Дорога (Александр Столпер, боевик, 1955) [DVDRip, Не требуется]
  • Два гусара (Вячеслав Криштофович, мелодрама, 1984) [DVDRip, Не требуется]
  • Тачанка с Юга (Евгений Шерстобитов, приключения, 1977) [DVDRip, Не требуетс ...
  • Захар Беркут (Леонид Осыка, драма, история, 1972) [DVDRip, Не требуется]
  • Моя любовь (Владимир Корш-Саблин, мюзикл, мелодрама, комедия, 1940) [DVDRip ...
  • Миллионы Ферфакса (Николай Ильинский, криминал, детектив, 1980) [DVDRip, Не ...
  • Мистер Икс (Юлий Хмельницкий, мюзикл, мелодрама, комедия, 1958) [DVDRip, Не ...
  • Легенда о княгине Ольге (Юрий Ильенко, драма, история, 1983) [DVDRip, Не тр ...
  • Комиссар (Александр Аскольдов, драма, военный, 1967) [DVDRip, Не требуется] ...
  • Магазинчик за углом / The Shop Around the Corner (Эрнст Любич, драма, мелод ...
  • Повесть о «Неистовом» (Борис Бабочкин, драма, военный, 1947) [DVDRip, Перев ...
  • Странный груз / Strange Cargo (Фрэнк Борзеги, драма, мелодрама, 1940) [DVDR ...
  • Первая перчатка (Андрей Фролов, мюзикл, мелодрама, комедия, спорт, 1946) [D ...
  • Небывальщина (Сергей Овчаров, комедия, 1983) [DVDRip, Не требуется]
  • Танкер «Дербент» (Александр Файнциммер, приключения, 1940) [DVDRip, Не треб ...
  • Пятый океан (Исидор Анненский, драма, 1940) [DVDRip, Не требуется]
  • Садко (Александр Птушко, фэнтези, приключения, 1952) [DVDRip, Не требуется] ...
  • Драгоценный подарок (Александр Роу, семейный, 1956) [DVDRip, Не требуется]
  • Гибель «Орла» (Василий Журавлев, приключения, 1940) [DVDRip, Не требуется]
  • Р.В.С. (Алексей Мороз, военный, 1977) [DVDRip, (2х)Оригинал (русский)]
  • Ключи от неба (Виктор Иванов, комедия, 1964) [DVDRip, Не требуется]
  • Суворов (Михаил Доллер, Всеволод Пудовкин, драма, военный, биография, истор ...
  • Дачная поездка сержанта Цыбули (Николай Литус, Виталий Шунько, комедия, вое ...
  • Информация
    Посетители, находящиеся в группе Гости, не могут оставлять комментарии к данной публикации.