вход на сайт

Имя пользователя :
Пароль :

Восстановление пароля Регистрация
Оптимистическая трагедия (Самсон Самсонов, драма, военный, история, 1963) [DVDRip, Не требуется]
Рейтинг:
(голосов: 1)



[img]{THEME}/images/logopost.png[/img]



Оптимистическая трагедия

Год выпуска: 1963
Страна: СССР
Производство:Мосфильм
Жанр: драма, военный, история

Режиссёр: Самсон Самсонов
В ролях: Маргарита Володина, Борис Андреев, Вячеслав Тихонов, Всеволод Санаев, Орко Биернинен, Всеволод Сафонов, Иван Жеваго, Даниил Нетребин, Григорий Михайлов, Петр Соболевский

Перевод: Не требуется
Субтитры: Отсутствуют

Описание:
Фильм, поставленный по пьесе Всеволода Вишневского, рассказывает о драматических событиях на одном из кораблей революционного флота в 1917 году.


Дополнительно:
MediaInfo ▼Text
Общее
Полное имя :D:. РАЗДАЧАОптимистическая трагедияOrtimisticheskaja tragedija.DVDRip.avi
Формат :AVI
Размер :1.37 GiB
Продолжительность :01:53:37.200
Общий поток :1 724 Kbps
Программа кодирования :VirtualDubModRus 1.5.10.2 (build 2542/release)
Библиотека кодирования :VirtualDubMod build 2542/release

Видео
Идентификатор :0
Формат :MPEG-4 Visual
Профиль формата :Advanced [email protected]
Параметр BVOP формата :2
Параметр Qpel формата :No
Параметр GMC формата :0
Параметр Matrix формата :Default (MPEG)
Идентификатор кодека :XVID
Продолжительность :1h 53mn 37s 200ms
Битрейт :1 602 Kbps
Ширина :688 pixels
Высота :512 pixels
Соотношение сторон :1.344
Частота кадров :25.000 fps
Глубина цвета :8 bits
Подвыборка цветности :4:2:0
Цветовое пространство :YUV
Тип развертки :Progressive
Бит/(Пиксели*Кадры) :0.182
Размер потока :1.27 GiB (93%)
Библиотека кодирования :XviD0050

Аудио #1
Идентификатор :1
Формат :AC-3
Формат/Информация :Audio Coding 3
Идентификатор кодека :2000
Продолжительность :01:53:37.184
Вид битрейта :Constant
Битрейт :112 Kbps
Канал(ы) :1 channel
Расположение каналов :Front: C
Частота :48.0 KHz
Битовая глубина :16 bits
Метод сжатия :Lossy
Размер потока :91.0 MiB (6%)Тех. данные:
Ка
e57699fd3bc01049a0869ad0e68ef11c413a89d6Оптимистическая трагедия (Самсон Самсонов, драма, военный, история, 1963) [DVDRip, Не требуется] Оптимистическая трагедия (Самсон Самсонов, драма, военный, история, 1963) [DVDRip, Не требуется] " />

Аплоадер: Админ, дата: 2-02-2013, 06:12, торрент скачан: 359 раз

Понравилась раздача? Посмотрите эти:
  • Полонез Огинского (Лев Голуб, драма, военный, 1971) [DVDRip, Не требуется]
  • Попрыгунья (Самсон Самсонов, драма, 1955) [DVDRip, Не требуется]
  • Парень из нашего города (Александр Столпер, Борис Иванов, драма, военный, 1 ...
  • Балтийское небо (2 части из 2) (Владимир Венгеров, драма, военный, история, ...
  • Одиноким предоставляется общежитие (Самсон Самсонов, мелодрама, комедия, 19 ...
  • Комиссар (Александр Аскольдов, драма, военный, 1967) [DVDRip, Не требуется] ...
  • Оптимистическая трагедия (Самсон Самсонов, драма, военный, история, 1963) [ ...
  • Сотрудник ЧК (Борис Волчек, боевик, история, 1963) [DVDRip, Не требуется]
  • Славный малый (Борис Барнет, военный, 1943) [DVDRip, Не требуется]
  • Сибириада (4 части из 4) (Андрей Кончаловский, драма, военный, история, 197 ...
  • Путь к причалу (Георгий Данелия, драма, 1963) [DVDRip, Не требуется]
  • Тихий Дон (3 части из 3) (Сергей Герасимов, драма, военный, 1957) [DVDRip, ...
  • В лесах под Ковелем (3 части из 3) (Юрий Тупицкий, военный, история, 1984) ...
  • Мышеловка (Самсон Самсонов, Драма, 1990) [DVDRip, Не требуется]
  • Хозяин и слуга (Дмитрий Кесаянц, короткометражка, комедия, 1963) [DVDRip, Н ...
  • Пассажирка / Pasazerka (Анджей Мунк, Витольд Лесевич, драма, военный, истор ...
  • Болотные солдаты (Александр Мачерет, драма, военный, 1938) [DVDRip, Не треб ...
  • Адмирал Нахимов (Всеволод Пудовкин, драма, военный, биография, история, 194 ...
  • Суворов (Михаил Доллер, Всеволод Пудовкин, драма, военный, биография, истор ...
  • Моонзунд (2 части из 2) (Александр Муратов, драма, мелодрама, военный, исто ...
  • Информация
    Посетители, находящиеся в группе Гости, не могут оставлять комментарии к данной публикации.