вход на сайт

Имя пользователя :
Пароль :

Восстановление пароля Регистрация
Операция «Трест» (4 части из 4) (Сергей Колосов, приключения, история, 1967) [DVDRip, Не требуется]
Рейтинг:
(голосов: 1)



[img]{THEME}/images/logopost.png[/img]



Операция «Трест» (4 части из 4)

Год выпуска: 1967
Страна: СССР
Производство: Мосфильм
Жанр: приключения, история

Режиссёр: Сергей Колосов
В ролях: Игорь Горбачев, Донатас Банионис, Армен Джигарханян, Алексей Сафонов, Бруно Оя, Людмила Касаткина, Всеволод Якут, Виктор Кольцов, Игорь Дмитриев, Ольга Гобзева

Перевод: Не требуется
Субтитры: Отсутствуют

Описание:
После окончания Гражданской войны за рубежом осталось более двух миллионов русских эмигрантов. Советская контрразведка, понимая, что тысячи опытных, обученных белых офицеров представляют потенциальную опасность для новой власти, проводит ряд рискованных и хитроумных акций по выявлению возможностей и намерений эмигрантских военных кругов. Операция под кодовым названием `Трест` — одна из крупнейших акций подобного рода…


Дополнительно:
MediaInfo ▼Text
"1 часть" ▼Общее
Полное имя :D:. РАЗДАЧАОперация ТрестOperacija Trest.DVDRip1_Operacija_Trest.avi
Формат :AVI
Размер :521 MiB
Продолжительность :01:18:23.520
Общий поток :929 Kbps
Программа кодирования :VirtualDubModRus 1.5.10.2 (build 2542/release)
Библиотека кодирования :VirtualDubMod build 2542/release

Видео
Идентификатор :0
Формат :MPEG-4 Visual
Параметр BVOP формата :1
Параметр Qpel формата :No
Параметр GMC формата :0
Параметр Matrix формата :Default (H.263)
Идентификатор кодека :DX50
Продолжительность :1h 18mn 23s 520ms
Битрейт :791 Kbps
Ширина :640 pixels
Высота :480 pixels
Соотношение сторон :1.333
Частота кадров :25.000 fps
Глубина цвета :8 bits
Подвыборка цветности :4:2:0
Цветовое пространство :YUV
Тип развертки :Progressive
Бит/(Пиксели*Кадры) :0.103
Размер потока :444 MiB (85%)
Библиотека кодирования :DivX503b2676p

Аудио #1
Идентификатор :1
Формат :MPEG Audio
Идентификатор кодека :55
Продолжительность :01:18:23.520
Вид битрейта :Constant
Битрейт :128 Kbps
Канал(ы) :2 channels
Частота :48.0 KHz
Метод сжатия :Lossy
Размер потока :71.8 MiB (14%)

"2 часть" ▼Общее
Полное имя
85a54f9ccfb62581b7870d1c07d372c9247652eaОперация «Трест» (4 части из 4) (Сергей Колосов, приключения, история, 1967) [DVDRip, Не требуется] Операция «Трест» (4 части из 4) (Сергей Колосов, приключения, история, 1967) [DVDRip, Не требуется] " />

Аплоадер: Админ, дата: 1-02-2013, 02:32, торрент скачан: 359 раз

Понравилась раздача? Посмотрите эти:
  • Дни хирурга Мишкина (3 части из 3) (Вадим Зобин, драма, 1967) [DVDRip, Не т ...
  • Анна Каренина (2 части из 2) (Александр Зархи, драма, мелодрама, 1967) [DVD ...
  • Судьба резидента (2 части из 2) (Вениамин Дорман, детектив, приключения, 19 ...
  • Конец операции «Резидент» (2 части из 2) (Вениамин Дорман, боевик, приключе ...
  • Мир дому твоему (2 части из 2) (Константин Райкин, Аркадий Райкин, Марк Орл ...
  • Люди и манекены (4 части из 4) (Виктор Храмов, Аркадий Райкин, комедия, 197 ...
  • Дон Сезар де Базан (2 части из 2) (Ян Фрид, мюзикл, комедия, 1989) [DVDRip, ...
  • Тимур и его команда (2 части из 2) (Александр Бланк, Сергей Линков, приключ ...
  • Путь в "Сатурн" (Виллен Азаров, военный, 1967) [DVDRip, Не требуется]
  • Конец "Сатурна" (Виллен Азаров, Мосфильм, 1967) [DVDRip, Не требуется]
  • Балтийское небо (2 части из 2) (Владимир Венгеров, драма, военный, история, ...
  • Объяснение в любви (2 части из 2) (Илья Авербах, мелодрама, 1977) [DVDRip, ...
  • Морской волк (4 части из 4) (Игорь Апасян, драма, мелодрама, приключения, 1 ...
  • Челюскинцы (2 части из 2) (Михаил Ершов, приключения, 1984) [TVRip, Не треб ...
  • Степь (2 части из 2) (Сергей Бондарчук, драма, история, 1977) [DVDRip, Не т ...
  • Трест, который лопнул (3 части из 3) (Александр Павловский, мюзикл, комедия ...
  • Сибириада (4 части из 4) (Андрей Кончаловский, драма, военный, история, 197 ...
  • Почти смешная история (2 части из 2) (Петр Фоменко, мелодрама, комедия, 197 ...
  • Председатель (2 части из 2) (Алексей Салтыков, драма, 1964) [DVDRip, Не тре ...
  • Тихий Дон (3 части из 3) (Сергей Герасимов, драма, военный, 1957) [DVDRip, ...
  • Подпольный обком действует (4 части из 4) (Анатолий Буковский, военный, 197 ...
  • В лесах под Ковелем (3 части из 3) (Юрий Тупицкий, военный, история, 1984) ...
  • Гений (2 части из 2) (Виктор Сергеев, Комедия, криминал, 1991) [DVDRip, Не ...
  • Дядюшкин сон (2 части из2) (Александр Орлов, драма, комедия, 1981) [DVDRip, ...
  • Неизвестный солдат (3 части из 3) (Григорий Аронов, Вадим Зобин, драма, 198 ...
  • Информация
    Посетители, находящиеся в группе Гости, не могут оставлять комментарии к данной публикации.