вход на сайт

Имя пользователя :
Пароль :

Восстановление пароля Регистрация
Опекун (Эдгар Ходжикян, Альберт С. Мкртчян, комедия, 1970) [DVDRip, Не требуется]
Рейтинг:
(голосов: 1)



[img]{THEME}/images/logopost.png[/img]



Опекун

Год выпуска: 1970
Страна: СССР
Производство: Мосфильм
Жанр: комедия

Режиссёр: Эдгар Ходжикян, Альберт С. Мкртчян
В ролях: Александр Збруев, Георгий Вицин, Клара Лучко, Ирина Мурзаева, Константин Сорокин, Гурген Тонунц, Лариса Виккел, Муза Крепкогорская, Евгений Тетерин, Герман Качин

Перевод: Не требуется
Субтитры: Отсутствуют

Описание:
Тунеядец Миша Короедов, вспомнив о своей подруге — официантке Любе, приезжает в южный город. Но Люба не собирается кормить бездельника и определяет его опекуном к старушке…


Дополнительно:
MediaInfo ▼Text
Общее
Полное имя :K:ОпекунOpekun.1970.DVDRip.avi
Формат :AVI
Размер :1.36 GiB
Продолжительность :01:20:57.360
Общий поток :2 409 Kbps
Программа кодирования :VirtualDubMod 1.5.10.3 | www.virtualdub-fr.org || (build 2550/release)
Библиотека кодирования :VirtualDubMod build 2550/release

Видео
Идентификатор :0
Формат :MPEG-4 Visual
Профиль формата :Advanced [email protected]
Параметр BVOP формата :1
Параметр Qpel формата :No
Параметр GMC формата :0
Параметр Matrix формата :Default (MPEG)
Идентификатор кодека :XVID
Продолжительность :1h 20mn 57s 360ms
Битрейт :2 016 Kbps
Ширина :704 pixels
Высота :304 pixels
Соотношение сторон :2.316
Частота кадров :25.000 fps
Глубина цвета :8 bits
Подвыборка цветности :4:2:0
Цветовое пространство :YUV
Тип развертки :Progressive
Бит/(Пиксели*Кадры) :0.377
Размер потока :1.14 GiB (84%)
Библиотека кодирования :XviD0050

Аудио #1
Идентификатор :1
Формат :AC-3
Формат/Информация :Audio Coding 3
Идентификатор кодека :2000
Продолжительность :01:20:56.928
Вид битрейта :Constant
Битрейт :384 Kbps
Канал(ы) :2 channels
Расположение каналов :Front: L R
Частота :48.0 KHz
Битовая глубина :16 bits
Метод сжатия :Lossy
Размер потока :222 MiB (16%)Тех. данные:
Качество:DVDRip
Продолжительность:&nb
26c47ee9cc1e757b54537c1a298c93166900d34fОпекун (Эдгар Ходжикян, Альберт С. Мкртчян, комедия, 1970) [DVDRip, Не требуется] Опекун (Эдгар Ходжикян, Альберт С. Мкртчян, комедия, 1970) [DVDRip, Не требуется] " />

Аплоадер: Админ, дата: 1-02-2013, 02:21, торрент скачан: 359 раз

Понравилась раздача? Посмотрите эти:
  • Вас вызывает Таймыр (Алексей Коренев, комедия, 1970) [DVDRip, Не требуется] ...
  • Начало (Глеб Панфилов, мелодрама, комедия, 1970) [DVDRip, Не требуется]
  • Зеленые цепочки (Григорий Аронов, приключения, 1970) [DVDRip, Не требуется] ...
  • Два дня чудес (Лев Мирский, комедия, 1970) [DVDRip, Не требуется]
  • Таинственная находка (Борис Бунеев, детский, приключения, 1954) [DVDRip, Не ...
  • Волшебная сила (Наум Бирман, мюзикл, комедия, семейный, 1970) [DVDRip, Не т ...
  • И вот пришел Бумбо... (Надежда Кошеверова, В. Апананский, Н. Окунцова, семе ...
  • Зигзаг удачи (Эльдар Рязанов, комедия, 1968) [DVDRip, Не требуется]
  • Царевич Проша (Надежда Кошеверова, фэнтези, семейный, 1947) [DVDRip, Не тре ...
  • Чудный характер (Константин Воинов, драма, 1970) [DVDRip, Не требуется]
  • Дача (Константин Воинов, комедия, 1974) [DVDRip, Не требуется]
  • Небывальщина (Сергей Овчаров, комедия, 1983) [DVDRip, Не требуется]
  • Карусель (Михаил Швейцер, комедия, 1970) [DVDRip, Не требуется]
  • Слуги дьявола на Чёртовой мельнице (Александр Лейманис, комедия, приключени ...
  • Слуги Дьявола (Александр Лейманис, комедия, приключения, 1970) [DVDRip, Про ...
  • Пропало лето (Ролан Быков, Никита Орлов, комедия, семейный, 1963) [DVDRip, ...
  • Приключения желтого чемоданчика (Илья Фрэз, комедия, семейный, 1970) [DVDRi ...
  • Тристана / Tristana (Луис Бунюэль, Драма, 1970) [DVDRip, Профессиональный ( ...
  • 01-99 (Амаси Мартиросян, короткометражка, комедия, 1959) [DVDRip, Не требуе ...
  • Хозяин и слуга (Дмитрий Кесаянц, короткометражка, комедия, 1963) [DVDRip, Н ...
  • Близнецы (Константин Юдин, комедия, 1945) [TVRip, Перевод, Не требуется]
  • Запасной игрок (Семен Тимошенко, комедия, спорт, 1955) [DVDRip, Не требуетс ...
  • Чермен (Николай Санишвили, приключения, 1970) [DVDRip, Не требуется]
  • Земля Санникова (Альберт С. Мкртчян, Леонид Попов, приключения, 1973) [DVDR ...
  • Лермонтов (Альберт Гендельштейн, драма, биография, 1943) [DVDRip, Не требу ...
  • Информация
    Посетители, находящиеся в группе Гости, не могут оставлять комментарии к данной публикации.