вход на сайт

Имя пользователя :
Пароль :

Восстановление пароля Регистрация
Ослиная шкура (Надежда Кошеверова, фэнтези, мелодрама, комедия, семейный, 1982) [DVDRip, Не требуется]
Рейтинг:
(голосов: 1)



[img]{THEME}/images/logopost.png[/img]



Ослиная шкура

Год выпуска: 1982
Страна: СССР
Производство: Ленфильм
Жанр: фэнтези, мелодрама, комедия, семейный

Режиссёр: Надежда Кошеверова
В ролях: Владимир Этуш, Светлана Немоляева, Вера Новикова, Александр Галибин, Зиновий Гердт, Татьяна Пельтцер, Валентина Панина, Николай Караченцов, Людмила Макарова, Сергей Паршин

Перевод: Не требуется
Субтитры: Отсутствуют

Описание:
«Ослиной шкурой» прозвали принцессу Терезу, которая убежала из-под венца, потому что любила другого — бедного принца Жака. Теперь она вынуждена скитаться в образе нищенки, терпеть унижения и прятаться от полиции. Но у нее есть заколдованный перстень с изумрудом. С помощью него она спасает жизнь Жаку.


Дополнительно:
MediaInfo ▼Text
Общее
Полное имя :J:1. РАЗДАЧАОслиная шкураОслиная шкура.DVDRip.avi
Формат :AVI
Размер :745 MiB
Продолжительность :01:19:46.640
Общий поток :1 305 Kbps
Программа кодирования :VirtualDubModRus 1.5.10.2 (build 2542/release)
Библиотека кодирования :VirtualDubMod build 2542/release

Видео
Идентификатор :0
Формат :MPEG-4 Visual
Параметр BVOP формата :1
Параметр Qpel формата :No
Параметр GMC формата :0
Параметр Matrix формата :Default (H.263)
Идентификатор кодека :DX50
Продолжительность :1h 19mn 46s 640ms
Битрейт :1 167 Kbps
Ширина :672 pixels
Высота :320 pixels
Соотношение сторон :2.100
Частота кадров :25.000 fps
Глубина цвета :8 bits
Подвыборка цветности :4:2:0
Цветовое пространство :YUV
Тип развертки :Progressive
Бит/(Пиксели*Кадры) :0.217
Размер потока :666 MiB (89%)
Библиотека кодирования :DivX503b2676p

Аудио #1
Идентификатор :1
Формат :MPEG Audio
Идентификатор кодека :55
Продолжительность :01:19:46.632
Вид битрейта :Constant
Битрейт :128 Kbps
Канал(ы) :2 channels
Частота :48.0 KHz
Метод сжатия :Lossy
Размер потока :73.0 MiB (10%)Тех. данные:
Качество:DVDRip
Продолжительность:01:19:40 час

Формат: AVI
Видео кодек: DivX
Аудио кодек: MPA1L3
Видео: 672 x 320 (2.100), 25.000 fps,
975bf22102f9ff9361dd32127f238b7890f07da8Ослиная шкура (Надежда Кошеверова, фэнтези, мелодрама, комедия, семейный, 1982) [DVDRip, Не требуется] Ослиная шкура (Надежда Кошеверова, фэнтези, мелодрама, комедия, семейный, 1982) [DVDRip, Не требуется] " />

Аплоадер: Админ, дата: 1-02-2013, 01:39, торрент скачан: 359 раз

Понравилась раздача? Посмотрите эти:
  • Наследница по прямой (Сергей Соловьев, мелодрама, 1982) [DVDRip, Не требует ...
  • Медовый месяц (Надежда Кошеверова, мелодрама, комедия, 1956) [DVDRip, Не тр ...
  • Выйти замуж за капитана (Виталий Мельников, мелодрама, комедия, 1985) [DVDR ...
  • Шанс (Александр Майоров, фантастика, фэнтези, мелодрама, комедия, приключен ...
  • И вот пришел Бумбо... (Надежда Кошеверова, В. Апананский, Н. Окунцова, семе ...
  • Иван да Марья (Борис Рыцарев, фэнтези, мелодрама, комедия, семейный, музыка ...
  • Золушка (Надежда Кошеверова, Михаил Шапиро, мюзикл, фэнтези, мелодрама, ком ...
  • Царевич Проша (Надежда Кошеверова, фэнтези, семейный, 1947) [DVDRip, Не тре ...
  • Как Иванушка-дурачок за чудом ходил (Надежда Кошеверова, фэнтези, семейный, ...
  • Тень (Реставрация) (Надежда Кошеверова, фэнтези, драма, мелодрама, комедия, ...
  • Майская ночь, или Утопленница (Александр Роу, фэнтези, комедия, 1952) [DVDR ...
  • Сегодня – новый аттракцион (Надежда Кошеверова, Аполлинарий Дудко, комедия, ...
  • Старая, старая сказка (Надежда Кошеверова, фэнтези, семейный, 1968) [DVDRip ...
  • Соловей (Надежда Кошеверова, мюзикл, семейный, 1979) [DVDRip, Не требуется] ...
  • Старомодная комедия (Эра Савельева, Татьяна Березанцева, мелодрама, 1978) [ ...
  • Ослиная шкура (Надежда Кошеверова, сказка, 1982) [DVDrip, перевод не требуе ...
  • Тень (Надежда Кошеверова, Фэнтези, драма, мелодрама, комедия, 1971) [DVDRip ...
  • Шофер поневоле (Надежда Кошеверова, комедия, 1958) [DVDRip, Не требуется]
  • Вера, надежда, любовь (Владимир Грамматиков, приключения, 1984) [DVDRip, Не ...
  • Каин XVIII (Надежда Кошеверова, Михаил Шапиро, фэнтези, мелодрама, приключе ...
  • Информация
    Посетители, находящиеся в группе Гости, не могут оставлять комментарии к данной публикации.