вход на сайт

Имя пользователя :
Пароль :

Восстановление пароля Регистрация
Друг мой, Колька!.. (Александр Митта, Алексей Салтыков, драма, 1961) [DVDRip, Не требуется]
Рейтинг:
(голосов: 1)



[img]{THEME}/images/logopost.png[/img]



Друг мой, Колька!..

Год выпуска: 1961
Страна: СССР
Производство: Мосфильм
Жанр: драма

Режиссёр: Александр Митта, Алексей Салтыков
В ролях: Александр Кобозев, Аня Родионова, Алексей Борзунов, Виктор Онучак, Татьяна Кузнецова, Антонина Дмитриева, Анатолий Кузнецов, Виталий Ованесов, Борис Новиков, Игорь Косухин

Перевод: Не требуется
Субтитры: Отсутствуют

Описание:
Ученики обычной средней школы организуют «тайное общество» под девизом «Помогать обиженным и слабым, мстить зубрилам и выскочкам!» Новый пионервожатый поддерживает ребят, и вскоре ему удается сделать школьную жизнь детей по-настоящему увлекательной.


Дополнительно:
MediaInfo ▼Text
Общее
Полное имя :K:Друг мой, Колька!Drug moy Kolka.avi
Формат :AVI
Размер :743 MiB
Продолжительность :01:22:49.368
Общий поток :1 254 Kbps
Программа кодирования :VirtualDubModRus 1.5.10.2 (build 2542/release)
Библиотека кодирования :VirtualDubMod build 2542/release

Видео
Идентификатор :0
Формат :MPEG-4 Visual
Профиль формата :Advanced [email protected]
Параметр BVOP формата :2
Параметр Qpel формата :No
Параметр GMC формата :0
Параметр Matrix формата :Default (MPEG)
Идентификатор кодека :XVID
Продолжительность :1h 22mn 49s 360ms
Битрейт :1 117 Kbps
Ширина :640 pixels
Высота :480 pixels
Соотношение сторон :1.333
Частота кадров :25.000 fps
Глубина цвета :8 bits
Подвыборка цветности :4:2:0
Цветовое пространство :YUV
Тип развертки :Progressive
Бит/(Пиксели*Кадры) :0.145
Размер потока :661 MiB (89%)
Библиотека кодирования :XviD0050

Аудио #1
Идентификатор :1
Формат :MPEG Audio
Идентификатор кодека :55
Продолжительность :01:22:49.368
Вид битрейта :Constant
Битрейт :128 Kbps
Канал(ы) :2 channels
Частота :48.0 KHz
Метод сжатия :Lossy
Размер потока :75.8 MiB (10%)



Тех. данные:
Качество:DVDRip
Продолжительность:01:22:48 час

Формат: AVI
Видео кодек: XviD
Аудио кодек: MPA1L3
Видео: 640 x 480 (4:3), 25.000 fps,
5193990230c35b8706c731e5cdfd0ddc5eea4a7fДруг мой, Колька!.. (Александр Митта, Алексей Салтыков, драма, 1961) [DVDRip, Не требуется] Друг мой, Колька!.. (Александр Митта, Алексей Салтыков, драма, 1961) [DVDRip, Не требуется] " />

Аплоадер: Админ, дата: 28-02-2013, 22:22, торрент скачан: 359 раз

Понравилась раздача? Посмотрите эти:
  • Бой под Соколом (Александр Разумный, военный, 1942) [DVDRip, Не требуется]
  • Нейтральные воды (Владимир Беренштейн, драма, 1968) [DVDRip, Не требуется]
  • Евдокия (Полная реставрация) (Татьяна Лиознова, драма, 1961) [DVDRip, Не тр ...
  • Дама с собачкой (Иосиф Хейфиц, драма, мелодрама, 1959) [DVDRip, Не требуетс ...
  • Гражданин Лёшка (Виктор Крючков, комедия, 1980) [DVDRip, Не требуется]
  • Четвертый (Александр Столпер, драма, 1972) [DVDRip, Не требуется]
  • Человек идёт за солнцем (Михаил Калик, драма, 1961) [DVDRip, Не требуется]
  • Ход конем (Татьяна Лукашевич, комедия, 1962) [DVDRip, Не требуется]
  • Таинственная находка (Борис Бунеев, детский, приключения, 1954) [DVDRip, Не ...
  • Бабье царство (Алексей Салтыков, драма, 1967) [DVDRip, Не требуется]
  • Опасный возраст (Александр Прошкин, драма, 1981) [DVDRip, Не требуется]
  • Лес (Владимир Мотыль, драма, 1980) [DVDRip, Не требуется]
  • Комиссар (Александр Аскольдов, драма, военный, 1967) [DVDRip, Не требуется] ...
  • Печники (Виктор Храмов, драма, 1982) [DVDRip, Не требуется]
  • Экипаж (2 части из 2) (Александр Митта, боевик, триллер, драма, 1979) [DVDR ...
  • Холодное лето пятьдесят третьего (Александр Прошкин, боевик, драма, кримина ...
  • Сказ про то, как царь Петр арапа женил (Александр Митта, мюзикл, мелодрама, ...
  • Проделки в старинном духе (Александр Панкратов, комедия, 1986) [DVDRip, Не ...
  • Председатель (2 части из 2) (Алексей Салтыков, драма, 1964) [DVDRip, Не тре ...
  • Друг мой, Колька!.. (Алексей Салтыков, Александр Митта, драма, школьная ист ...
  • Болотные солдаты (Александр Мачерет, драма, военный, 1938) [DVDRip, Не треб ...
  • Донская повесть (Владимир Фетин, драма, 1964) [DVDRip, Не требуется]
  • Драгоценный подарок (Александр Роу, семейный, 1956) [DVDRip, Не требуется]
  • Дядюшкин сон (2 части из2) (Александр Орлов, драма, комедия, 1981) [DVDRip, ...
  • Р.В.С. (Алексей Мороз, военный, 1977) [DVDRip, (2х)Оригинал (русский)]
  • Информация
    Посетители, находящиеся в группе Гости, не могут оставлять комментарии к данной публикации.