вход на сайт

Имя пользователя :
Пароль :

Восстановление пароля Регистрация
Егерь (Герман Ливанов, драма, экранизация, 1960) [DVDRip, Не требуется]
Рейтинг:
(голосов: 1)



[img]{THEME}/images/logopost.png[/img]



Егерь

Год выпуска: 1960
Страна: СССР
Производство: Центральная студия телевидения
Жанр: Драма, экранизация

Режиссёр: Герман Ливанов
В ролях: Виталий Леонов, Ольга Хорькова

Перевод: Не требуется
Субтитры: Отсутствуют

Описание:
Экранизация по мотивам рассказа А.П.Чехова "Егерь"

«Егерь» — первый рассказ Чехова, отмеченный Д. В. Григоровичем. 25 марта 1886 г. он писал Чехову: «Около года тому назад я случайно прочел в „Петербургской газете“ Ваш рассказ; названия его теперь не припомню; помню только, что меня поразили в нем черты особенной своеобразности, а главное — замечательная верность, правдивость в изображении действующих лиц и также при описании природы. С тех пор я читал всё, что было подписано Чехонте...»
Данные отсутствуют Данные отсутствуют

Дополнительно:
MediaInfo ▼Text
Общее
Полное имя :D:А.П.Чехов.ЕгерьEger`.avi
Формат :AVI
Размер :218 MiB
Продолжительность :00:13:58.680
Общий поток :2 181 Kbps
Программа кодирования :VirtualDubModRus 1.5.10.2 (build 2542/release)
Библиотека кодирования :VirtualDubMod build 2542/release

Видео
Идентификатор :0
Формат :MPEG-4 Visual
Профиль формата :Advanced [email protected]
Параметр BVOP формата :2
Параметр Qpel формата :No
Параметр GMC формата :0
Параметр Matrix формата :Default (MPEG)
Идентификатор кодека :XVID
Продолжительность :13mn 58s 680ms
Битрейт :1 979 Kbps
Ширина :704 pixels
Высота :528 pixels
Соотношение сторон :1.333
Частота кадров :25.000 fps
Глубина цвета :8 bits
Подвыборка цветности :4:2:0
Цветовое пространство :YUV
Тип развертки :Progressive
Бит/(Пиксели*Кадры) :0.213
Размер потока :198 MiB (91%)
Библиотека кодирования :XviD0064

Аудио #1
Идентификатор :1
Формат :MPEG Audio
Идентификатор кодека :55
Продолжительность :00:13:58.680
Вид битрейта :Constant
Битрейт :192 Kbps
Канал(ы) :2 channels
Частота :48.0 KHz
Метод сжатия :Lossy
Размер потока :19.2 MiB (9%)Тех. данные:
Качество:DV
e60326e392c33851773d0e8b54fb39933183df5eЕгерь (Герман Ливанов, драма, экранизация, 1960) [DVDRip, Не требуется] Егерь (Герман Ливанов, драма, экранизация, 1960) [DVDRip, Не требуется] " />

Аплоадер: Админ, дата: 27-02-2013, 21:42, торрент скачан: 359 раз

Понравилась раздача? Посмотрите эти:
  • Сережа (Георгий Данелия, Игорь Таланкин, драма, 1960) [DVDRip, Не требуется ...
  • Белорусский вокзал (Андрей Смирнов, драма, 1971) [DVDRip, Не требуется]
  • "Мерседес" уходит от погони (Юрий Ляшенко, военный, 1980) [DVDRip, Не требу ...
  • Нейтральные воды (Владимир Беренштейн, драма, 1968) [DVDRip, Не требуется]
  • Зеленые цепочки (Григорий Аронов, приключения, 1970) [DVDRip, Не требуется] ...
  • Дама с собачкой (Иосиф Хейфиц, драма, мелодрама, 1959) [DVDRip, Не требуетс ...
  • Вы чье, старичье? (Иосиф Хейфиц, драма, 1988) [DVDRip, Не требуется]
  • Выстрел (Наум Трахтенберг, драма, 1966) [DVDRip, Не требуется]
  • Эзоп (Олег Рябоконь, драма, история, 1981) [DVDRip, Не требуется]
  • Рыжик (Илья Фрэз, приключения, семейный, 1960) [DVDRip, Не требуется]
  • Проверка на дорогах (Алексей Герман, драма, военный, 1971) [DVDRip, Не треб ...
  • Балтийское небо (2 части из 2) (Владимир Венгеров, драма, военный, история, ...
  • Драма (Герман Ливанов, короткометражка, комедия, 1960) [DVDRip, Не требуетс ...
  • Друг мой, Колька!.. (Александр Митта, Алексей Салтыков, драма, 1961) [DVDRi ...
  • Оптимистическая трагедия (Самсон Самсонов, драма, военный, история, 1963) [ ...
  • Лес (Владимир Мотыль, драма, 1980) [DVDRip, Не требуется]
  • Комиссар (Александр Аскольдов, драма, военный, 1967) [DVDRip, Не требуется] ...
  • Какие наши годы! (Эльёр Ишмухамедов, драма, 1980) [DVDRip, Не требуется]
  • Тропой бескорыстной любви (Агаси Бабаян, драма, 1972) [DVDRip, Не требуется ...
  • Пиковая дама (Игорь Масленников, драма, 1982) [DVDRip, Не требуется]
  • Порожний рейс (Владимир Венгеров, драма, 1962) [DVDRip, Не требуется]
  • Чайка (Юлий Карасик, драма, 1972) [DVDRip, Не требуется]
  • А.П. Чехов. (Экранизация рассказов) (Георгий Товстоногов, Герман Ливанов, К ...
  • Степь (2 части из 2) (Сергей Бондарчук, драма, история, 1977) [DVDRip, Не т ...
  • Мичман Панин (Михаил Швейцер, приключения, военный, история, 1960) [DVDRip, ...
  • Информация
    Посетители, находящиеся в группе Гости, не могут оставлять комментарии к данной публикации.