вход на сайт

Имя пользователя :
Пароль :

Восстановление пароля Регистрация
Если есть паруса (Валентин Козачков, драма, 1969) [DVDRip, Не требуется]
Рейтинг:
(голосов: 1)



[img]{THEME}/images/logopost.png[/img]



Если есть паруса

Год выпуска: 1969
Страна: СССР
Производство: Одесская киностудия
Жанр: драма

Режиссёр: Валентин Козачков
В ролях: Виктор Семенов, Тая Додина, Михаил Пуговкин, Алексей Грибов, Нонна Копержинская, Борислав Брондуков, Муза Крепкогорская, Виктор Мережко, Станислав Соколов, Геннадий Ялович

Перевод: Не требуется
Субтитры: Отсутствуют

Описание:
Иван Елкин после окончания мореходного училища получает в командование… маленький буксир «Геркулес», вернее, его команду. Как водится, новичка встречают настороженно, но вскоре энергичному и принципиальному капитану удается завоевать авторитет и уважение личного состава «Геркулеса».


Дополнительно:
MediaInfo ▼Text
Общее
Полное имя :D:Если есть парусаesli.est.parusa.1969.avi
Формат :AVI
Размер :976 MiB
Продолжительность :01:09:28.920
Общий поток :1 964 Kbps
Программа кодирования :VirtualDubMod 1.5.10.2 (build 2540/release)
Библиотека кодирования :VirtualDubMod build 2540/release

Видео
Идентификатор :0
Формат :MPEG-4 Visual
Профиль формата :Advanced [email protected]
Параметр BVOP формата :2
Параметр Qpel формата :No
Параметр GMC формата :0
Параметр Matrix формата :Default (MPEG)
Идентификатор кодека :XVID
Продолжительность :1h 9mn 28s 920ms
Битрейт :1 827 Kbps
Ширина :640 pixels
Высота :480 pixels
Соотношение сторон :1.333
Частота кадров :25.000 fps
Глубина цвета :8 bits
Подвыборка цветности :4:2:0
Цветовое пространство :YUV
Тип развертки :Progressive
Бит/(Пиксели*Кадры) :0.238
Размер потока :908 MiB (93%)
Библиотека кодирования :XviD0050C

Аудио #1
Идентификатор :1
Формат :MPEG Audio
Идентификатор кодека :55
Продолжительность :01:09:28.920
Вид битрейта :Constant
Битрейт :128 Kbps
Канал(ы) :2 channels
Частота :48.0 KHz
Метод сжатия :Lossy
Размер потока :63.6 MiB (7%)



Тех. данные:
Качество:DVDRip
Продолжительность:01:09:20 час

Формат: AVI
Видео кодек: XviD
Аудио кодек: MPA1L3
Видео: 6
d47555ed7359864185bce226750c0d87dedf93d2Если есть паруса (Валентин Козачков, драма, 1969) [DVDRip, Не требуется] Если есть паруса (Валентин Козачков, драма, 1969) [DVDRip, Не требуется] " />

Аплоадер: Админ, дата: 27-02-2013, 21:29, торрент скачан: 359 раз

Понравилась раздача? Посмотрите эти:
  • Бой под Соколом (Александр Разумный, военный, 1942) [DVDRip, Не требуется]
  • Алые паруса (Александр Птушко, фэнтези, драма, мелодрама, 1961) [DVDRip, Не ...
  • Летят журавли (Михаил Калатозов, драма, мелодрама, военный, 1957) [DVDRip, ...
  • Дневной поезд (Инесса Селезнева, драма, 1976) [DVDRip, Не требуется]
  • Где это видано, где это слыхано (Валентин Горлов, короткометражка, комедия, ...
  • Человек идёт за солнцем (Михаил Калик, драма, 1961) [DVDRip, Не требуется]
  • Ход конем (Татьяна Лукашевич, комедия, 1962) [DVDRip, Не требуется]
  • Семейное счастье (Андрей Ладынин, Сергей Соловьев, Александр Шейн, драма, 1 ...
  • Иван да Марья (Борис Рыцарев, фэнтези, мелодрама, комедия, семейный, музыка ...
  • Неподсуден (Владимир Краснопольский, Валерий Усков, драма, 1969) [DVDRip, Н ...
  • Лес (Владимир Мотыль, драма, 1980) [DVDRip, Не требуется]
  • Князь Игорь (Роман Тихомиров, мюзикл, приключения, 1969) [DVDRip, Не требуе ...
  • Капитанская дочка (Владимир Каплуновский, драма, 1958) [DVDRip, Не требуетс ...
  • Казаки-разбойники (Валентин Козачков, детский, приключения, 1979) [DVDRip, ...
  • "Тигры" на льду (Валентин Козачков, Альберт Осипов, детский, комедия, спорт ...
  • Пустыня (Михаил Кац, драма, 1991) [TVRip, Не требуется]
  • Пиковая Дама (Роман Тихомиров, мюзикл, драма, 1961) [DVDRip, Не требуется]
  • Чудный характер (Константин Воинов, драма, 1970) [DVDRip, Не требуется]
  • Печники (Виктор Храмов, драма, 1982) [DVDRip, Не требуется]
  • Мы с Вулканом (Валентин Перов, детский, семейный, 1973) [TVRip, Не требуетс ...
  • Четвертый перископ (Виктор Эйсымонт, приключения, 1942) [DVDRip, Не требует ...
  • У меня есть лев (2 части из 2) (Константин Бромберг, драма, комедия, приклю ...
  • Путь к причалу (Георгий Данелия, драма, 1963) [DVDRip, Не требуется]
  • Солдатки (Валентин Козачков, драма, 1977) [DVDRip, Не требуется]
  • Варвара-краса, длинная коса (Александр Роу, фэнтези, драма, мелодрама, коме ...
  • Информация
    Посетители, находящиеся в группе Гости, не могут оставлять комментарии к данной публикации.