вход на сайт

Имя пользователя :
Пароль :

Восстановление пароля Регистрация
Завтрак на траве (Николай Александрович, детский, комедия, 1979) [DVDRip, Не требуется]
Рейтинг:
(голосов: 1)



[img]{THEME}/images/logopost.png[/img]



Завтрак на траве

Год выпуска: 1979
Страна: СССР
Производство: ТО Экран
Жанр: детский, комедия

Режиссёр: Николай Александрович
В ролях: Сергей Проханов, Валентина Талызина, Татьяна Лебедькова, Людмила Гравес, Максим Широков, Александр Коптев, Игорь Князев, Саша Жданов, Татьяна Самсонова, Александр Демьяненко

Перевод: Не требуется
Субтитры: Отсутствуют

Описание:
Молодой рабочий Иван Ковалев отправляется в пионерский лагерь в качестве пионервожатого, но завоевать любовь и уважение ребят непрост


Дополнительно:
MediaInfo ▼Text
Общее
Полное имя :L:Завтрак на травеavtrak.na.trave.(1979).DVDRip.avi
Формат :AVI
Размер :1.37 GiB
Продолжительность :02:15:15.600
Общий поток :1 449 Kbps
Программа кодирования :VirtualDubMod 1.5.10.2 (build 2540/release)
Библиотека кодирования :VirtualDubMod build 2540/release

Видео
Идентификатор :0
Формат :MPEG-4 Visual
Профиль формата :Advanced [email protected]
Параметр BVOP формата :1
Параметр Qpel формата :No
Параметр GMC формата :0
Параметр Matrix формата :Custom
Идентификатор кодека :XVID
Продолжительность :2h 15mn 15s 600ms
Битрейт :1 248 Kbps
Ширина :704 pixels
Высота :528 pixels
Соотношение сторон :1.333
Частота кадров :25.000 fps
Глубина цвета :8 bits
Подвыборка цветности :4:2:0
Цветовое пространство :YUV
Тип развертки :Progressive
Бит/(Пиксели*Кадры) :0.134
Размер потока :1.18 GiB (86%)
Библиотека кодирования :XviD0050

Аудио #1
Идентификатор :1
Формат :AC-3
Формат/Информация :Audio Coding 3
Идентификатор кодека :2000
Продолжительность :02:15:15.584
Вид битрейта :Constant
Битрейт :192 Kbps
Канал(ы) :2 channels
Расположение каналов :Front: L R
Частота :48.0 KHz
Битовая глубина :16 bits
Метод сжатия :Lossy
Размер потока :186 MiB (13%)Тех. данные:
Качество:DVDRip
Продолжительность:02:15:10 час

Форма
7d28b96ecb67f6c315a0bce39318334d213c91aaЗавтрак на траве (Николай Александрович, детский, комедия, 1979) [DVDRip, Не требуется] Завтрак на траве (Николай Александрович, детский, комедия, 1979) [DVDRip, Не требуется] " />

Аплоадер: Админ, дата: 26-02-2013, 21:10, торрент скачан: 359 раз

Понравилась раздача? Посмотрите эти:
  • Тайна горного подземелья (Лев Мирский, детский, приключения, 1975) [DVDRip, ...
  • Старшина (Николай Кошелев, драма, 1979) [DVDRip, Не требуется]
  • Таинственная находка (Борис Бунеев, детский, приключения, 1954) [DVDRip, Не ...
  • Путевка в Жизнь (Николай Экк, драма, 1931) [DVDRip, Не требуется]
  • Примите телеграмму в долг (Леонид Нечаев, драма, 1979) [DVDRip, Не требуетс ...
  • Ах, водевиль, водевиль... (Георгий Юнгвальд-Хилькевич, мюзикл, комедия, 197 ...
  • Иван да Марья (Борис Рыцарев, фэнтези, мелодрама, комедия, семейный, музыка ...
  • Осенний марафон (Георгий Данелия, драма, мелодрама, комедия, 1979) [DVDRip, ...
  • Маленький гигант большого секса (Николай Досталь, Комедия, 1992) [DVDRip, Н ...
  • Левша (Сергей Овчаров, драма, комедия, 1986) [DVDRip, Не требуется]
  • Казаки-разбойники (Валентин Козачков, детский, приключения, 1979) [DVDRip, ...
  • Фантазеры (Исаак Магитон, И. Сафарова, детский, 1965) [DVDRip, Не требуется ...
  • Сватовство гусара (Светлана Дружинина, мюзикл, мелодрама, комедия, 1979) [D ...
  • Завтрак на траве (Николай Александрович, детский, комедия, 1979) [DVDRip, Н ...
  • Солёный пёс (Николай Кошелев, драма, комедия, 1973) [DVDRip, Не требуется]
  • Печники (Виктор Храмов, драма, 1982) [DVDRip, Не требуется]
  • Небывальщина (Сергей Овчаров, комедия, 1983) [DVDRip, Не требуется]
  • Бабушки надвое сказали (Валерий Харченко, Юрий Клебанов, комедия, 1979) [DV ...
  • Соловей (Надежда Кошеверова, мюзикл, семейный, 1979) [DVDRip, Не требуется] ...
  • Суета сует (Алла Сурикова, комедия, 1979) [DVDRip, Не требуется]
  • Прощайте, фараоны! (Давид Черкасский, Вячеслав Винник, комедия, 1974) [DVDR ...
  • Приключения маленького папы (Дмитрий Крупко, детский, комедия, 1979) [DVDRi ...
  • Завтрак на траве (Николай Александрович, Детский, мелодрама)[TVRip, не треб ...
  • Пограничный пес Алый (Юлий Файт, драма, 1979) [DVDRip, Не требуется]
  • Добряки (Карен Шахназаров, комедия, 1979) [DVDRip, Не требуется]
  • Информация
    Посетители, находящиеся в группе Гости, не могут оставлять комментарии к данной публикации.