вход на сайт

Имя пользователя :
Пароль :

Восстановление пароля Регистрация
Захар Беркут (Леонид Осыка, драма, история, 1972) [DVDRip, Не требуется]
Рейтинг:
(голосов: 1)



[img]{THEME}/images/logopost.png[/img]



Захар Беркут

Год выпуска: 1972
Страна: СССР
Производство: Студия Довженко
Жанр: драма, история

Режиссёр: Леонид Осыка
В ролях: Болот Бейшеналиев, Борислав Брондуков, Иван Гаврилюк, Антонина Лефтий, Иван Миколайчук, Василий Симчич, Константин Степанков, Николай Федорцов, Лев Колесник

Перевод: Не требуется
Субтитры: Отсутствуют

Описание:
Фильм рассказывает об участии карпатских земледельцев и охотников во главе с Захаром Беркутом в борьбе против татаро-монгольского нашествия на Киевскую Русь.


Дополнительно:
MediaInfo ▼Text
Общее
Полное имя :J:Захар Беркутakhar Berkut.1972.avi
Формат :AVI
Размер :1.46 GiB
Продолжительность :01:32:38.120
Общий поток :2 253 Kbps
Библиотека кодирования :VirtualDub build 33790/release

Видео
Идентификатор :0
Формат :MPEG-4 Visual
Профиль формата :Advanced [email protected]
Параметр BVOP формата :1
Параметр Qpel формата :No
Параметр GMC формата :0
Параметр Matrix формата :Custom
Идентификатор кодека :XVID
Продолжительность :1h 32mn 38s 120ms
Битрейт :1 987 Kbps
Ширина :720 pixels
Высота :304 pixels
Соотношение сторон :2.368
Частота кадров :25.000 fps
Глубина цвета :8 bits
Подвыборка цветности :4:2:0
Цветовое пространство :YUV
Тип развертки :Progressive
Бит/(Пиксели*Кадры) :0.363
Размер потока :1.29 GiB (88%)
Библиотека кодирования :XviD0064

Аудио #1
Идентификатор :1
Формат :AC-3
Формат/Информация :Audio Coding 3
Идентификатор кодека :2000
Продолжительность :01:32:37.920
Вид битрейта :Constant
Битрейт :256 Kbps
Канал(ы) :2 channels
Расположение каналов :Front: L R
Частота :48.0 KHz
Битовая глубина :16 bits
Метод сжатия :Lossy
Размер потока :170 MiB (11%)



Тех. данные:
Качество:DVDRip
Продолжительность:01:32:30 час

Формат: AVI
Видео кодек: XviD
Аудио кодек: AC3
Видео: 720 x 304 (2.35:1), 25.000 fps, 1 987 Kbps, 0.3
5238b3f0699204e7ce8d520cc06ca8683af1221eЗахар Беркут (Леонид Осыка, драма, история, 1972) [DVDRip, Не требуется] Захар Беркут (Леонид Осыка, драма, история, 1972) [DVDRip, Не требуется] " />

Аплоадер: Админ, дата: 26-02-2013, 21:06, торрент скачан: 359 раз

Понравилась раздача? Посмотрите эти:
  • Айрик (Генрих Малян, драма, семейный, 1972) [DVDRip, Профессиональный (пол ...
  • Нейтральные воды (Владимир Беренштейн, драма, 1968) [DVDRip, Не требуется]
  • Зимородок (Вячеслав Никифоров, военный, 1972) [DVDRip, Не требуется]
  • Жди меня (Борис Иванов, Александр Столпер, драма, военный, 1972) [DVDRip, Н ...
  • Дни лётные (Николай Литус, Леонид Ризин, драма, 1965) [DVDRip, Не требуется ...
  • Четвертый (Александр Столпер, драма, 1972) [DVDRip, Не требуется]
  • Ох, уж эта Настя! (Юрий Победоносцев, семейный, 1972) [DVDRip, Не требуется ...
  • Афоня (Георгий Данелия, драма, мелодрама, комедия, 1975) [DVDRip, Не требуе ...
  • Двенадцать месяцев (2 части из 2) (Анатолий Граник, фэнтези, семейный, 1972 ...
  • Оптимистическая трагедия (Самсон Самсонов, драма, военный, история, 1963) [ ...
  • Легенда о княгине Ольге (Юрий Ильенко, драма, история, 1983) [DVDRip, Не тр ...
  • Левша (Сергей Овчаров, драма, комедия, 1986) [DVDRip, Не требуется]
  • Тропой бескорыстной любви (Агаси Бабаян, драма, 1972) [DVDRip, Не требуется ...
  • Чайка (Юлий Карасик, драма, 1972) [DVDRip, Не требуется]
  • Чудак из пятого «Б» (Илья Фрэз, комедия, семейный, 1972) [DVDRip, Не требуе ...
  • Табачный капитан (Игорь Усов, мюзикл, комедия, история, 1972) [DVDRip, Не т ...
  • Спортлото-82 (Леонид Гайдай, комедия, приключения, 1982) [DVDRip, Не требуе ...
  • Слуги дьявола на Чёртовой мельнице (Александр Лейманис, комедия, приключени ...
  • Деловые люди (полная реставрация) (Леонид Гайдай, комедия, драма, 1962) [DV ...
  • Адмирал Нахимов (Всеволод Пудовкин, драма, военный, биография, история, 194 ...
  • Информация
    Посетители, находящиеся в группе Гости, не могут оставлять комментарии к данной публикации.