вход на сайт

Имя пользователя :
Пароль :

Восстановление пароля Регистрация
Земля отцов (Шакен Айманов, драма, 1966) [DVDRip, Не требуется]
Рейтинг:
(голосов: 1)



[img]{THEME}/images/logopost.png[/img]



Земля отцов

Год выпуска: 1966
Страна: СССР
Производство: Студия Казахфильм
Жанр: драма

Режиссёр: Шакен Айманов
В ролях: Елеубай Умурзаков, Мурат Ахмадиев, Виктор Шевцов, Юрий Померанцев, Яраги Зубайраев, Любовь Малиновская, Шолпан Алтайбаева, Б. Руцинский, Рахметулла Сальменов, Виктор Перевалов

Перевод: Не требуется
Субтитры: Отсутствуют

Описание:
После окончания войны старик отправляется с внуком на север — где-то под Ленинградом похоронен его сын. Они должны похоронить его в казахской степи — таков закон предков. Но добравшись до могилы, герои узнают, что он похоронен с теми, кто был с ним в последнем бою. Не потревожив могилы, старый казах и мальчик отправились в обратный путь.


Дополнительно:
MediaInfo ▼Text
Общее
Полное имя :K:Земля отцовemlya otcov.(1966).DVDRip.avi
Формат :AVI
Размер :1.37 GiB
Продолжительность :01:25:58.560
Общий поток :2 276 Kbps
Программа кодирования :VirtualDubMod 1.5.10.2 (build 2540/release)

Видео
Идентификатор :0
Формат :MPEG-4 Visual
Параметр BVOP формата :No
Параметр Qpel формата :No
Параметр GMC формата :0
Параметр Matrix формата :Default (H.263)
Идентификатор кодека :DX50
Продолжительность :1h 25mn 58s 560ms
Битрейт :2 075 Kbps
Ширина :688 pixels
Высота :512 pixels
Соотношение сторон :1.344
Частота кадров :25.000 fps
Глубина цвета :8 bits
Подвыборка цветности :4:2:0
Цветовое пространство :YUV
Тип развертки :Progressive
Бит/(Пиксели*Кадры) :0.236
Размер потока :1.25 GiB (91%)
Библиотека кодирования :DivX503b1328

Аудио #1
Идентификатор :1
Формат :AC-3
Формат/Информация :Audio Coding 3
Идентификатор кодека :2000
Продолжительность :01:25:58.272
Вид битрейта :Constant
Битрейт :192 Kbps
Канал(ы) :2 channels
Расположение каналов :Front: L R
Частота :48.0 KHz
Битовая глубина :16 bits
Метод сжатия :Lossy
Размер потока :118 MiB (8%)



Тех. данные:
Качество:DVDRip
Продолжительность:&n
eeec06fef9aecb8e039eba61fecf9c018ca0360cЗемля отцов (Шакен Айманов, драма, 1966) [DVDRip, Не требуется] Земля отцов (Шакен Айманов, драма, 1966) [DVDRip, Не требуется] " />

Аплоадер: Админ, дата: 26-02-2013, 21:01, торрент скачан: 359 раз

Понравилась раздача? Посмотрите эти:
  • Вертикаль (Борис Дуров, Станислав Говорухин, приключения, 1966) [DVDRip, Не ...
  • Июльский дождь (Марлен Хуциев, драма, 1966) [DVDRip, Не требуется]
  • Выстрел (Наум Трахтенберг, драма, 1966) [DVDRip, Не требуется]
  • Путевка в Жизнь (Николай Экк, драма, 1931) [DVDRip, Не требуется]
  • Приключения Толи Клюквина (Виктор Эйсымонт, комедия, семейный, 1964) [DVDRi ...
  • Не забудь... станция Луговая (Никита Курихин, Леонид Менакер, драма, мелодр ...
  • Начальник Чукотки (Виталий Мельников, драма, комедия, приключения, история, ...
  • Комиссар (Александр Аскольдов, драма, военный, 1967) [DVDRip, Не требуется] ...
  • Ты и я (Лариса Шепитько, драма, 1971) [DVDRip, Не требуется]
  • Чайка (Юлий Карасик, драма, 1972) [DVDRip, Не требуется]
  • Печники (Виктор Храмов, драма, 1982) [DVDRip, Не требуется]
  • Их знали только в лицо (Антон Тимонишин, драма, 1966) [DVDRip, Не требуется ...
  • Уходя - уходи (Виктор Трегубович, комедия, 1978) [DVDRip, Не требуется]
  • Скверный анекдот (Александр Алов, Владимир Наумов, комедия, 1966) [DVDRip, ...
  • Путь к причалу (Георгий Данелия, драма, 1963) [DVDRip, Не требуется]
  • Путь корабля (Юрий Тарич, драма, приключения, 1935) [DVDRip, Не требуется]
  • При исполнении служебных обязанностей (Илья Гурин, фантастика, драма, 1963) ...
  • Снежная королева (Геннадий Казанский, фэнтези, драма, приключения, семейный ...
  • Ангел в тюбетейке (Шакен Айманов, Музыкальная комедия, 1968) [TVRip]
  • Как украсть миллион / How to steal a million (Уильям Уайлер, комедия, крими ...
  • Вальсирующие / Les valseuses (Бертран Блие, драма, комедия, криминал, 1966) ...
  • Эмбрион охотится тайно / Taiji ga mitsuryo suru toki (Кодзи Вакамацу, драма ...
  • Дядюшкин сон (Константин Воинов, драма, 1966) [DVDRip, Не требуется]
  • В добрый час! (Виктор Эйсымонт, драма, мелодрама, 1956) [DVDRip, Не требует ...
  • За облаками – небо (Юрий Егоров, драма, 1973) [DVDRip, Не требуется]
  • Информация
    Посетители, находящиеся в группе Гости, не могут оставлять комментарии к данной публикации.