вход на сайт

Имя пользователя :
Пароль :

Восстановление пароля Регистрация
Жили-были старик со старухой (2 части из 2) (Григорий Чухрай, драма, 1964) [DVDRip, Не требуется]
Рейтинг:
(голосов: 1)



[img]{THEME}/images/logopost.png[/img]



Жили-были старик со старухой (2 части из 2)

Год выпуска: 1964
Страна: Россия
Производство: Мосфильм
Жанр: драма

Режиссёр: Григорий Чухрай
В ролях: Иван Марин, Вера Кузнецова, Людмила Максакова, Георгий Мартынюк, Галина Польских, Анатолий Яббаров, Виктор Колпаков, Николай Крючков, Николай Сергеев, Гиули Чохонелидзе

Перевод: Не требуется
Субтитры: Отсутствуют

Описание:
Киноповесть о двух стариках-пенсионерах, которые после пожара остались на старости лет без крова. Строиться заново не захотели. Думали было отправиться к одному из благополучных сыновей — но поехали в далекое Заполярье, к непутевой и неустроенной дочери…


Дополнительно:
MediaInfo ▼Text
"1 часть" ▼Общее
Полное имя :L:Жили-были старик со старухойЖили-были старик со старухой.1965Gili-Byli.Starik.So.Staruhoy.1965.1serija.DVDRip.avi
Формат :AVI
Размер :921 MiB
Продолжительность :01:06:17.007
Общий поток :1 943 Kbps
Программа кодирования :DigiArty AV Encoder Core

Видео
Идентификатор :0
Формат :MPEG-4 Visual
Профиль формата :[email protected]
Параметр BVOP формата :No
Параметр Qpel формата :No
Параметр GMC формата :0
Параметр Matrix формата :Default (H.263)
Идентификатор кодека :DX50
Продолжительность :1h 6mn 17s 7ms
Битрейт :1 737 Kbps
Ширина :720 pixels
Высота :540 pixels
Соотношение сторон :1.333
Частота кадров :29.970 fps
Глубина цвета :8 bits
Подвыборка цветности :4:2:0
Цветовое пространство :YUV
Тип развертки :Progressive
Бит/(Пиксели*Кадры) :0.149
Размер потока :824 MiB (89%)
Библиотека кодирования :DigiArty AV Encoder Core

Аудио #1
Идентификатор :1
Формат :MPEG Audio
Идентификатор кодека :55
Продолжительность :01:06:14.808
Вид битрейта :Constant
Битрейт :192 Kbps
Канал(ы) :2 channels
Частота :48.0 KHz
Метод сжатия :Lossy
Размер потока :91.0 MiB (10%)

"2 часть" ▼Общее
Полное имя :L:Жили-были старик со старухойЖили-были старик со старухой.1965Gili-Byli.Starik.So
98ead2a3e9282c75cbbacbbf0f2de81dcab26888Жили-были старик со старухой (2 части из 2) (Григорий Чухрай, драма, 1964) [DVDRip, Не требуется] Жили-были старик со старухой (2 части из 2) (Григорий Чухрай, драма, 1964) [DVDRip, Не требуется] " />

Аплоадер: Админ, дата: 25-02-2013, 19:31, торрент скачан: 359 раз

Понравилась раздача? Посмотрите эти:
  • Дни хирурга Мишкина (3 части из 3) (Вадим Зобин, драма, 1967) [DVDRip, Не т ...
  • Будни и праздники Серафимы Глюкиной (2 части из 2) (Ростислав Горяев, драма ...
  • Ошибка резидента (2 части из 2) (Вениамин Дорман, детектив, 1968) [DVDRip, ...
  • Возвращение резидента (2 части из 2) (Вениамин Дорман, триллер, 1982) [DVDR ...
  • Макар-следопыт (3 части из 3) (Николай Ковальский, семейный, 1984) [DVDRip, ...
  • Люди и манекены (4 части из 4) (Виктор Храмов, Аркадий Райкин, комедия, 197 ...
  • Бой после победы (2 части из 2) (Виллен Азаров, триллер, военный, 1972) [DV ...
  • Баллада о солдате (Григорий Чухрай, драма, мелодрама, военный, 1959) [DVDRi ...
  • Вся королевская рать (3 части из 3) (Наум Ардашников, Александр Гуткович, д ...
  • Морской волк (4 части из 4) (Игорь Апасян, драма, мелодрама, приключения, 1 ...
  • Челюскинцы (2 части из 2) (Михаил Ершов, приключения, 1984) [TVRip, Не треб ...
  • Царь Иван Грозный (2 части из 2) (Геннадий Васильев, Драма, история, 1991) ...
  • Степь (2 части из 2) (Сергей Бондарчук, драма, история, 1977) [DVDRip, Не т ...
  • Сибириада (4 части из 4) (Андрей Кончаловский, драма, военный, история, 197 ...
  • Ханума (2 части из 2) (Георгий Товстоногов, мюзикл, комедия, 1978) [DVDRip, ...
  • Председатель (2 части из 2) (Алексей Салтыков, драма, 1964) [DVDRip, Не тре ...
  • Тихий Дон (3 части из 3) (Сергей Герасимов, драма, военный, 1957) [DVDRip, ...
  • Подпольный обком действует (4 части из 4) (Анатолий Буковский, военный, 197 ...
  • В лесах под Ковелем (3 части из 3) (Юрий Тупицкий, военный, история, 1984) ...
  • Сказка о рыбаке и рыбке (Михаил Цехановский, мультфильм, 1950) [DVDRip, Ори ...
  • Жили-были старик со старухой (2-е части) (Григорий Чухрай, драма, 1964) [D ...
  • Евстифейка - волк (Елена Ужинова, Олег Ужинов, Рисованный мультфильм, Корот ...
  • Гений (2 части из 2) (Виктор Сергеев, Комедия, криминал, 1991) [DVDRip, Не ...
  • Дядюшкин сон (2 части из2) (Александр Орлов, драма, комедия, 1981) [DVDRip, ...
  • Неизвестный солдат (3 части из 3) (Григорий Аронов, Вадим Зобин, драма, 198 ...
  • Информация
    Посетители, находящиеся в группе Гости, не могут оставлять комментарии к данной публикации.