вход на сайт

Имя пользователя :
Пароль :

Восстановление пароля Регистрация
Иван да Марья (Борис Рыцарев, фэнтези, мелодрама, комедия, семейный, музыка, 1974) [DVDRip, Не требуется]
Рейтинг:
(голосов: 1)



[img]{THEME}/images/logopost.png[/img]



Иван да Марья

Год выпуска: 1974
Страна: СССР
Производство: Студия Горького
Жанр: фэнтези, мелодрама, комедия, семейный, музыка

Режиссёр: Борис Рыцарев
В ролях: Иван Бортник, Татьяна Пискунова, Иван Рыжов, Лия Ахеджакова, Елизавета Уварова, Николай Бурляев, Лев Круглый, Виктор Сергачев, Михаил Козаков, Валентин Гафт

Перевод: Не требуется
Субтитры: Отсутствуют

Описание:
Между царем и солдатом Иваном происходит нешуточный спор. Бывалый солдат, конечно, берет верх над вздорным государем. Но до той поры приключится в царстве много необычного и веселого…


Дополнительно:
MediaInfo ▼Text
Общее
Полное имя :D:Иван да МарьяIvan da Marya.1974.avi
Формат :AVI
Размер :703 MiB
Продолжительность :01:22:44.736
Общий поток :1 188 Kbps
Программа кодирования :VirtualDubMod 1.5.10.2 (build 2540/release)
Библиотека кодирования :VirtualDubMod build 2540/release

Видео
Идентификатор :0
Формат :MPEG-4 Visual
Профиль формата :Advanced [email protected]
Параметр BVOP формата :1
Параметр Qpel формата :No
Параметр GMC формата :0
Параметр Matrix формата :Default (H.263)
Идентификатор кодека :XVID
Продолжительность :1h 22mn 44s 720ms
Битрейт :1 050 Kbps
Ширина :704 pixels
Высота :376 pixels
Соотношение сторон :1.872
Частота кадров :25.000 fps
Глубина цвета :8 bits
Подвыборка цветности :4:2:0
Цветовое пространство :YUV
Тип развертки :Progressive
Бит/(Пиксели*Кадры) :0.159
Размер потока :621 MiB (88%)
Библиотека кодирования :XviD0050

Аудио #1
Идентификатор :1
Формат :AC-3
Формат/Информация :Audio Coding 3
Идентификатор кодека :2000
Продолжительность :01:22:44.736
Вид битрейта :Constant
Битрейт :128 Kbps
Канал(ы) :2 channels
Расположение каналов :Front: L R
Частота :48.0 KHz
Битовая глубина :16 bits
Метод сжатия :Lossy
Размер потока :75.8 MiB (11%)



Тех. данные:
Качество:DVDRip
Продо
e2f712c301d15e13c8e7bc23a7eada1e386ebdd9Иван да Марья (Борис Рыцарев, фэнтези, мелодрама, комедия, семейный, музыка, 1974) [DVDRip, Не требуется] Иван да Марья (Борис Рыцарев, фэнтези, мелодрама, комедия, семейный, музыка, 1974) [DVDRip, Не требуется] " />

Аплоадер: Админ, дата: 24-02-2013, 21:00, торрент скачан: 359 раз

Понравилась раздача? Посмотрите эти:
  • Три дня в Москве (2 части из 2) (Алексей Коренев, комедия, 1974) [DVDRip, Н ...
  • Пакет (Владимир Назаров, комедия, приключения, семейный, 1965) [DVDRip, Не ...
  • Деревня Утка (Борис Бунеев, семейный, 1976) [DVDRip, Не требуется]
  • Завтрак на траве (Николай Александрович, детский, комедия, 1979) [DVDRip, Н ...
  • Ослиная шкура (Надежда Кошеверова, фэнтези, мелодрама, комедия, семейный, 1 ...
  • Царевич Проша (Надежда Кошеверова, фэнтези, семейный, 1947) [DVDRip, Не тре ...
  • Пропавшая грамота (Борис Ивченко, фэнтези, комедия, 1972) [DVDRip, Професси ...
  • Мульт-Салют. 7 ч. из 30: Приключения Буратино/Чиполлино (Иван Иванов-Вано, ...
  • Подарок чёрного колдуна (Борис Рыцарев, фэнтези, приключения, семейный, 197 ...
  • Морозко // Королевство кривых зеркал // Финист – Ясный сокол (Александр Роу ...
  • Новые похождения Кота в сапогах // Марья-искусница (Александр Роу, фэнтези, ...
  • Прощайте, фараоны! (Давид Черкасский, Вячеслав Винник, комедия, 1974) [DVDR ...
  • Сказка о царе Салтане (Александр Птушко, фэнтези, семейный, 1967) [DVDRip, ...
  • Ученик лекаря (Борис Рыцарев, комедия, семейный, история, 1986) [DVDRip, Не ...
  • Полустанок (Борис Барнет, мелодрама, комедия, 1963) [DVDRip, Не требуется]
  • Принцесса на горошине (Борис Рыцарев, фэнтези, семейный, 1976) [DVDRip-AVC, ...
  • Иван да Марья (Борис Рыцарев, Сказка, детский, семейный, 1974) [DVDRip, не ...
  • Здравствуйте, я ваша тетя! (Виктор Титов, комедия, 1974) [DVDRip, Не требуе ...
  • Целуются зори (Сергей Никоненко, комедия, 1978) [DVDRip, Не требуется]
  • Варвара-краса, длинная коса (Александр Роу, фэнтези, драма, мелодрама, коме ...
  • Информация
    Посетители, находящиеся в группе Гости, не могут оставлять комментарии к данной публикации.