вход на сайт

Имя пользователя :
Пароль :

Восстановление пароля Регистрация
Иваново детство (Андрей Тарковский, драма, военный, 1962) [DVDRip, Не требуется]
Рейтинг:
(голосов: 1)



[img]{THEME}/images/logopost.png[/img]



Иваново детство

Год выпуска: 1962
Страна: СССР
Производство: Мосфильм
Жанр: драма, военный

Режиссёр: Андрей Тарковский
В ролях: Николай Бурляев, Валентин Зубков, Евгений Жариков, Степан Крылов, Николай Гринько, Дмитрий Милютенко, Валентина Малявина, Ирина Тарковская, Андрей Кончаловский, Иван Савкин

Перевод: Не требуется
Субтитры: Отсутствуют

Описание:
…Детство 12-летнего Ивана закончилось в тот день, когда у него на глазах фашисты расстреляли мать и сестренку. Отец мальчика погиб на фронте. Оставшись сиротой, Иван уходит в воинскую часть и становится неуловимым разведчиком.

Он с риском для жизни добывает для командования бесценные сведения о противнике. Но война есть война…


Дополнительно:
MediaInfo ▼Text
Общее
Полное имя :D:Иваново детствоIvanovo Detstvo.1962.DVDRip.avi
Формат :AVI
Размер :1.30 GiB
Продолжительность :01:31:01.250
Общий поток :2 038 Kbps
Программа кодирования :Lavf52.17.0

Видео
Идентификатор :0
Формат :MPEG-4 Visual
Профиль формата :[email protected]
Параметр BVOP формата :No
Параметр Qpel формата :No
Параметр GMC формата :0
Параметр Matrix формата :Default (H.263)
Идентификатор кодека :XVID
Продолжительность :1h 31mn 1s 250ms
Битрейт :1 580 Kbps
Ширина :720 pixels
Высота :524 pixels
Соотношение сторон :1.374
Частота кадров :24.000 fps
Глубина цвета :8 bits
Подвыборка цветности :4:2:0
Цветовое пространство :YUV
Тип развертки :Progressive
Бит/(Пиксели*Кадры) :0.174
Размер потока :1.00 GiB (78%)
Библиотека кодирования :XviD0046

Аудио #1
Идентификатор :1
Формат :AC-3
Формат/Информация :Audio Coding 3
Идентификатор кодека :2000
Продолжительность :01:30:58.944
Вид битрейта :Constant
Битрейт :448 Kbps
Канал(ы) :6 channels
Расположение каналов :Front: L C R, Side: L R, LFE
Частота :48.0 KHz
Битовая глубина :16 bits
Метод сжатия :Lossy
Размер потока :292 MiB (22%)



Тех. д
21e1e513aaca56d32dd2fba5996f84ab91fdbdc7Иваново детство (Андрей Тарковский, драма, военный, 1962) [DVDRip, Не требуется] Иваново детство (Андрей Тарковский, драма, военный, 1962) [DVDRip, Не требуется] " />

Аплоадер: Админ, дата: 24-02-2013, 20:56, торрент скачан: 359 раз

Понравилась раздача? Посмотрите эти:
  • Андрей Рублев / Страсти по Андрею. [Режиссерская версия] (Андрей Тарковски ...
  • Подранки (Николай Губенко, драма, 1976) [DVDRip, Не требуется]
  • Дикая собака Динго (Юлий Карасик, драма, 1962) [DVDRip, Не требуется]
  • Старшина (Николай Кошелев, драма, 1979) [DVDRip, Не требуется]
  • Сегодня увольнения не будет (Александр Гордон, Андрей Тарковский, короткоме ...
  • Гнев Ахилла / Lira di Achille (Марино Гиролами, боевик, драма, мелодрама, в ...
  • Зеркало (Андрей Тарковский, драма, биография, 1974) [DVDRip, Не требуется]
  • Андрей Рублев / Андрей Рублев (1 фильм из 2-х серий) (Андрей Тарковский, др ...
  • Печёнка (Арман Манарян, короткометражка, комедия, 1962) [DVDRip, Не требует ...
  • Процесс Жанны Д Арк / Proces de Jeanne dArc (Робер Брессон, драма, военный, ...
  • Черная чайка (Григорий Колтунов, приключения, 1962) [DVDRip, Не требуется]
  • Порожний рейс (Владимир Венгеров, драма, 1962) [DVDRip, Не требуется]
  • Иваново детство / Ivans Childhood (Андрей Тарковский, драма, военный, 1962) ...
  • Дядя Ваня (Андрей Кончаловский, драма, 1971) [DVDRip, Не требуется]
  • Семь нянек (Ролан Быков, комедия, 1962) [DVDRip, Не требуется]
  • Царь Иван Грозный (2 части из 2) (Геннадий Васильев, Драма, история, 1991) ...
  • Служили два товарища (Евгений Карелов, драма, комедия, военный, 1968) [DVDR ...
  • Сибириада (4 части из 4) (Андрей Кончаловский, драма, военный, история, 197 ...
  • Иваново детство (Андрей Тарковский, Драма, военный, 1962) [DVDRip, Оригина ...
  • Иваново детство (Андрей Тарковский, драма,военный,1962) [DVDRip, не требует ...
  • Деловые люди (полная реставрация) (Леонид Гайдай, комедия, драма, 1962) [DV ...
  • Ад для героев / Hell Is for Heroes (Дон Сигел, боевик, драма, военный, 1962 ...
  • Андрей Рублев (Андрей Тарковский, Драма, история, 1966) [HDRip, Не требуетс ...
  • Взрослые дети (Виллен Азаров, драма, комедия, 1962) [DVDRip, Не требуется] ...
  • Карьера Димы Горина (Фрунзе Довлатян, Лев Мирский, комедия, 1962) [DVDRip, ...
  • Информация
    Посетители, находящиеся в группе Гости, не могут оставлять комментарии к данной публикации.