вход на сайт

Имя пользователя :
Пароль :

Восстановление пароля Регистрация
И вот пришел Бумбо... (Надежда Кошеверова, В. Апананский, Н. Окунцова, семейный, 1984) [DVDRip, Не требуется]
Рейтинг:
(голосов: 1)



[img]{THEME}/images/logopost.png[/img]



И вот пришел Бумбо...

Год выпуска: 1984
Страна: СССР
Производство: Ленфильм
Жанр: семейный

Режиссёр: Надежда Кошеверова, В. Апананский, Н. Окунцова
В ролях: Олег Басилашвили, Валерий Золотухин, Татьяна Пельтцер, Светлана Немоляева, Зиновий Гердт, Александр Панкратов-Черный, Сергей Филиппов, Наташа Шинакова, Сергей Паршин, Георгий Штиль

Перевод: Не требуется
Субтитры: Отсутствуют

Описание:
Александра больна, и цирковой служитель Костя предлагает лечить её возрождением интереса к жизни. Девочка просит отца достать ей живого слона…


Дополнительно:
MediaInfo ▼Text
Общее
Полное имя :J:1. РАЗДАЧАИ вот пришел БумбоI.vot.prishel.Bumbo.1984.DVDRip.avi
Формат :AVI
Размер :1.36 GiB
Продолжительность :01:13:52.080
Общий поток :2 640 Kbps
Программа кодирования :VirtualDubMod 1.5.10.3 | www.virtualdub-fr.org || (build 2550/release)
Библиотека кодирования :VirtualDubMod build 2550/release

Видео
Идентификатор :0
Формат :MPEG-4 Visual
Профиль формата :Advanced [email protected]
Параметр BVOP формата :2
Параметр Qpel формата :No
Параметр GMC формата :0
Параметр Matrix формата :Default (H.263)
Идентификатор кодека :XVID
Продолжительность :1h 13mn 52s 80ms
Битрейт :2 438 Kbps
Ширина :704 pixels
Высота :544 pixels
Соотношение сторон :1.294
Частота кадров :25.000 fps
Глубина цвета :8 bits
Подвыборка цветности :4:2:0
Цветовое пространство :YUV
Тип развертки :Progressive
Бит/(Пиксели*Кадры) :0.255
Размер потока :1.26 GiB (92%)
Библиотека кодирования :XviD0050

Аудио #1
Идентификатор :1
Формат :AC-3
Формат/Информация :Audio Coding 3
Идентификатор кодека :2000
Продолжительность :01:13:52.032
Вид битрейта :Constant
Битрейт :192 Kbps
Канал(ы) :2 channels
Расположение каналов :Front: L R
Частота :48.0 KHz
Битовая глубина :16 bits
Метод сжатия :Lossy
Размер потока :101 MiB (7%)Тех. данные:
a4f1055b298cb9bb6fd381ad499d16d6ea24309aИ вот пришел Бумбо... (Надежда Кошеверова, В. Апананский, Н. Окунцова, семейный, 1984) [DVDRip, Не требуется] И вот пришел Бумбо... (Надежда Кошеверова, В. Апананский, Н. Окунцова, семейный, 1984) [DVDRip, Не требуется] " />

Аплоадер: Админ, дата: 24-02-2013, 20:53, торрент скачан: 359 раз

Понравилась раздача? Посмотрите эти:
  • Медовый месяц (Надежда Кошеверова, мелодрама, комедия, 1956) [DVDRip, Не тр ...
  • Макар-следопыт (3 части из 3) (Николай Ковальский, семейный, 1984) [DVDRip, ...
  • Два гусара (Вячеслав Криштофович, мелодрама, 1984) [DVDRip, Не требуется]
  • Шанс (Александр Майоров, фантастика, фэнтези, мелодрама, комедия, приключен ...
  • Человек-невидимка (Александр Захаров, фантастика, драма, 1984) [DVDRip, Не ...
  • Приключения Толи Клюквина (Виктор Эйсымонт, комедия, семейный, 1964) [DVDRi ...
  • Ох, уж эта Настя! (Юрий Победоносцев, семейный, 1972) [DVDRip, Не требуется ...
  • Город мастеров (Владимир Бычков, фэнтези, приключения, семейный, история, 1 ...
  • Деревня Утка (Борис Бунеев, семейный, 1976) [DVDRip, Не требуется]
  • Ослиная шкура (Надежда Кошеверова, фэнтези, мелодрама, комедия, семейный, 1 ...
  • Царевич Проша (Надежда Кошеверова, фэнтези, семейный, 1947) [DVDRip, Не тре ...
  • Небывальщина (Сергей Овчаров, комедия, 1983) [DVDRip, Не требуется]
  • Как Иванушка-дурачок за чудом ходил (Надежда Кошеверова, фэнтези, семейный, ...
  • Тень (Реставрация) (Надежда Кошеверова, фэнтези, драма, мелодрама, комедия, ...
  • Сегодня – новый аттракцион (Надежда Кошеверова, Аполлинарий Дудко, комедия, ...
  • Старая, старая сказка (Надежда Кошеверова, фэнтези, семейный, 1968) [DVDRip ...
  • Соловей (Надежда Кошеверова, мюзикл, семейный, 1979) [DVDRip, Не требуется] ...
  • Пропало лето (Ролан Быков, Никита Орлов, комедия, семейный, 1963) [DVDRip, ...
  • ... и ещё одна ночь Шахерезады / Новые сказки Шахерезады / Последняя ночь Ш ...
  • Драгоценный подарок (Александр Роу, семейный, 1956) [DVDRip, Не требуется]
  • Шофер поневоле (Надежда Кошеверова, комедия, 1958) [DVDRip, Не требуется]
  • Дом на дюнах (Дмитрий Салынский, приключения, 1984) [DVDRip, Не требуется]
  • Вера, надежда, любовь (Владимир Грамматиков, приключения, 1984) [DVDRip, Не ...
  • Каин XVIII (Надежда Кошеверова, Михаил Шапиро, фэнтези, мелодрама, приключе ...
  • Каникулы Петрова и Васечкина, обыкновенные и невероятные (2 части из 2) (Вл ...
  • Информация
    Посетители, находящиеся в группе Гости, не могут оставлять комментарии к данной публикации.