вход на сайт

Имя пользователя :
Пароль :

Восстановление пароля Регистрация
Деревенский детектив (Иван Лукинский, комедия, криминал, 1968) [DVDRip, Не требуется]
Рейтинг:
(голосов: 1)



[img]{THEME}/images/logopost.png[/img]



Деревенский детектив

Год выпуска: 1968
Страна: СССР
Производство: Студия Горького
Жанр: комедия, криминал

Режиссёр: Иван Лукинский
В ролях: Михаил Жаров, Татьяна Пельтцер, Роман Ткачук, Лидия Смирнова, Ирина Зарубина, Анатолий Игнатьев, Николай Скоробогатов
,
Георгий Оболенский, Юрий Смирнов, Александра Харитонова

Перевод: Не требуется
Субтитры: Отсутствуют

Описание:
В самой тихой деревне района ЧП — у завхоза клуба украли аккордеон. Улик преступники не оставили, свидетелей тоже. И заподозрить в воровстве некого — в деревне все свои. Завхоз махнул рукой и уже надумал новый аккордеон покупать. Но детектив Анискин всерьез собрался распутать это тёмное дело…


Дополнительно:
MediaInfo ▼Text
Общее
Полное имя :K:Деревенский детективDerevenskiy detektiv.DVDRip.avi
Формат :AVI
Размер :1.37 GiB
Продолжительность :01:21:59.168
Общий поток :2 388 Kbps
Программа кодирования :VirtualDubModRus 1.5.10.2 (build 2542/release)
Библиотека кодирования :VirtualDubMod build 2542/release

Видео
Идентификатор :0
Формат :MPEG-4 Visual
Параметр BVOP формата :Yes
Параметр Qpel формата :No
Параметр GMC формата :0
Параметр Matrix формата :Default (H.263)
Идентификатор кодека :DX50
Продолжительность :1h 21mn 59s 160ms
Битрейт :1 994 Kbps
Ширина :720 pixels
Высота :320 pixels
Соотношение сторон :2.250
Частота кадров :25.000 fps
Глубина цвета :8 bits
Подвыборка цветности :4:2:0
Цветовое пространство :YUV
Тип развертки :Progressive
Бит/(Пиксели*Кадры) :0.346
Размер потока :1.14 GiB (84%)
Библиотека кодирования :DivX503b2676p

Аудио #1
Идентификатор :1
Формат :AC-3
Формат/Информация :Audio Coding 3
Идентификатор кодека :2000
Продолжительность :01:21:59.168
Вид битрейта :Constant
Битрейт :384 Kbps
Канал(ы) :6 channels
Расположение каналов :Front: L C R, Side: L R, LFE
Частота :48.0 KHz
Битовая глубина :16 bits
Метод сжатия :Lossy
Размер потока :225 MiB (1
302f0def79fcd4e3746a14ac93b95a6fb74decc1Деревенский детектив (Иван Лукинский, комедия, криминал, 1968) [DVDRip, Не требуется] Деревенский детектив (Иван Лукинский, комедия, криминал, 1968) [DVDRip, Не требуется] " />

Аплоадер: Админ, дата: 24-02-2013, 20:28, торрент скачан: 359 раз

Понравилась раздача? Посмотрите эти:
  • Журавушка (Николай Москаленко, драма, мелодрама, 1968) [DVDRip, Не требуетс ...
  • Ошибка резидента (2 части из 2) (Вениамин Дорман, детектив, 1968) [DVDRip, ...
  • Нейтральные воды (Владимир Беренштейн, драма, 1968) [DVDRip, Не требуется]
  • Дело Румянцева (Иосиф Хейфиц, драма, криминал, детектив, 1955) [DVDRip, Не ...
  • Хозяин тайги (Владимир Назаров, криминал, 1968) [DVDRip, Не требуется]
  • Три дня в Москве (2 части из 2) (Алексей Коренев, комедия, 1974) [DVDRip, Н ...
  • Приключения Толи Клюквина (Виктор Эйсымонт, комедия, семейный, 1964) [DVDRi ...
  • Пакет (Владимир Назаров, комедия, приключения, семейный, 1965) [DVDRip, Не ...
  • Две стрелы. Детектив каменного века (Алла Сурикова, комедия, криминал, 1989 ...
  • Анискин и Фантомас (2 части из 2) (Михаил Жаров, Владимир Рапопорт, комедия ...
  • И снова Анискин (3 части из 3) (Виталий Иванов, Михаил Жаров, криминал, дет ...
  • Иван да Марья (Борис Рыцарев, фэнтези, мелодрама, комедия, семейный, музыка ...
  • Трактористы (Иван Пырьев, драма, комедия, 1939) [DVDRip, Не требуется]
  • Стряпуха (Эдмонд Кеосаян, комедия, 1965) [DVDRip, Не требуется]
  • Беспокойное хозяйство (Михаил Жаров, мюзикл, комедия, военный, 1945) [DVDRi ...
  • Шофер поневоле (Надежда Кошеверова, комедия, 1958) [DVDRip, Не требуется]
  • Гений (2 части из 2) (Виктор Сергеев, Комедия, криминал, 1991) [DVDRip, Не ...
  • Солдат Иван Бровкин (Иван Лукинский, драма, 1956) [DVDRip, Не требуется]
  • Иван Бровкин на целине (Иван Лукинский, комедия, 1958) [DVDRip, Не требуетс ...
  • Воскресенье, половина седьмого (4 части из 4) (Вадим Зобин, криминал, детек ...
  • Информация
    Посетители, находящиеся в группе Гости, не могут оставлять комментарии к данной публикации.