вход на сайт

Имя пользователя :
Пароль :

Восстановление пароля Регистрация
Далеко от Москвы (Александр Столпер, драма, 1950) [DVDRip, Не требуется]
Рейтинг:
(голосов: 1)



[img]{THEME}/images/logopost.png[/img]



Далеко от Москвы

Год выпуска: 1950
Страна: СССР
Производство: Мосфильм
Жанр: драма

Режиссёр: Александр Столпер
В ролях: Николай Охлопков, Лев Свердлин, Павел Кадочников, Сергей Столяров, Валериан Квачадзе
,
Александр Ханов, Марк Бернес, Татьяна Махова, К. Кириллов, Леонид Кмит

Перевод: Не требуется
Субтитры: Отсутствуют

Описание:
Экранизация популярного романа Василия Ажаева. «Далеко от Москвы», в таежных сибирских краях идет строительство нефтепровода, но великолепные молодые красавцы-спецы предпочли бы совершать не трудовые подвиги в тылу, а боевые — на передовой. Истории сурового шика, по преимуществу во френчах.


Дополнительно:
MediaInfo ▼Text
Общее
Полное имя :D:Далеко от москвыDaleko ot Moskvy.avi
Формат :AVI
Размер :800 MiB
Продолжительность :01:40:01.600
Общий поток :1 118 Kbps
Программа кодирования :VirtualDubMod 1.5.4.1 (build 2178/release)
Библиотека кодирования :VirtualDubMod build 2178/release

Видео
Идентификатор :0
Формат :MPEG-4 Visual
Профиль формата :Advanced [email protected]
Параметр BVOP формата :1
Параметр Qpel формата :No
Параметр GMC формата :0
Параметр Matrix формата :Custom
Идентификатор кодека :XVID
Продолжительность :1h 40mn 1s 600ms
Битрейт :999 Kbps
Ширина :544 pixels
Высота :416 pixels
Соотношение сторон :1.308
Частота кадров :25.000 fps
Глубина цвета :8 bits
Подвыборка цветности :4:2:0
Цветовое пространство :YUV
Тип развертки :Progressive
Бит/(Пиксели*Кадры) :0.177
Размер потока :715 MiB (89%)
Библиотека кодирования :XviD0047

Аудио #1
Идентификатор :1
Формат :MPEG Audio
Идентификатор кодека :55
Продолжительность :01:40:01.502
Вид битрейта :Constant
Битрейт :112 Kbps
Канал(ы) :2 channels
Частота :44.1 KHz
Метод сжатия :Lossy
Размер потока :80.1 MiB (10%)



Тех. данные:
Качество:DVDRip
Продолжительность:01:40:00 час

Формат: AVI
Видео кодек: XviD
Аудио кодек: MPA1L3
Видео: 544 x
911a6507e84d18131e895286be3a0d5460e16160Далеко от Москвы (Александр Столпер, драма, 1950) [DVDRip, Не требуется] Далеко от Москвы (Александр Столпер, драма, 1950) [DVDRip, Не требуется] " />

Аплоадер: Админ, дата: 7-03-2013, 00:53, торрент скачан: 359 раз

Понравилась раздача? Посмотрите эти:
  • Бой под Соколом (Александр Разумный, военный, 1942) [DVDRip, Не требуется]
  • Летят журавли (Михаил Калатозов, драма, мелодрама, военный, 1957) [DVDRip, ...
  • Жди меня (Борис Иванов, Александр Столпер, драма, военный, 1972) [DVDRip, Н ...
  • Евдокия (Полная реставрация) (Татьяна Лиознова, драма, 1961) [DVDRip, Не тр ...
  • Дорога (Александр Столпер, боевик, 1955) [DVDRip, Не требуется]
  • Два гусара (Вячеслав Криштофович, мелодрама, 1984) [DVDRip, Не требуется]
  • Высота (Александр Зархи, мелодрама, 1957) [DVDRip, Не требуется]
  • Четвертый (Александр Столпер, драма, 1972) [DVDRip, Не требуется]
  • Старшина (Николай Кошелев, драма, 1979) [DVDRip, Не требуется]
  • Путевка в Жизнь (Николай Экк, драма, 1931) [DVDRip, Не требуется]
  • Прощай, шпана замоскворецкая... (Александр Панкратов, драма, мелодрама, 198 ...
  • Парень из нашего города (Александр Столпер, Борис Иванов, драма, военный, 1 ...
  • Живые и мертвые (2 части из 2) (Александр Столпер, драма, военный, 1963) [D ...
  • Левша (Сергей Овчаров, драма, комедия, 1986) [DVDRip, Не требуется]
  • Комиссар (Александр Аскольдов, драма, военный, 1967) [DVDRip, Не требуется] ...
  • Родина зовет (Александр Мачерет, военный, 1936) [DVDRip, Не требуется]
  • Повесть о настоящем человеке (Александр Столпер, драма, военный, 1948) [DVD ...
  • Небывальщина (Сергей Овчаров, комедия, 1983) [DVDRip, Не требуется]
  • Танкер «Дербент» (Александр Файнциммер, приключения, 1940) [DVDRip, Не треб ...
  • Кутузов (Владимир Петров, драма, 1943) [DVDRip, Не требуется]
  • Информация
    Посетители, находящиеся в группе Гости, не могут оставлять комментарии к данной публикации.