вход на сайт

Имя пользователя :
Пароль :

Восстановление пароля Регистрация
Деревня Утка (Борис Бунеев, семейный, 1976) [DVDRip, Не требуется]
Рейтинг:
(голосов: 1)



[img]{THEME}/images/logopost.png[/img]



Деревня Утка

Год выпуска: 1976
Страна: СССР
Производство: Студия Горького
Жанр: семейный

Режиссёр: Борис Бунеев
В ролях: Ролан Быков, Оксана Дубень, Евдокия Алексеева, Елена Санаева, Александр Потапов, Вадим Захарченко, Георгий Милляр, Вадим Александров, Сергей Ремизов

Перевод: Не требуется
Субтитры: Отсутствуют

Описание:
Однажды Оля узнала от бабушки, у которой проводила каникулы, что в их старом деревенском доме живет добрый и озорной домовой Шишок. Девочка с радостью поверила в бабушкину байку — и Шишок появился. Новый друг провел с девочкой все каникулы, проказничая и веселя всю деревню…


Дополнительно:
MediaInfo ▼Text
Общее
Полное имя :D:Деревня УткаDerevnya Utka.avi
Формат :AVI
Размер :1.36 GiB
Продолжительность :01:23:42.960
Общий поток :2 330 Kbps
Программа кодирования :VirtualDubMod 1.5.10.2 (build 2540/release)
Библиотека кодирования :VirtualDubMod build 2540/release

Видео
Идентификатор :0
Формат :MPEG-4 Visual
Профиль формата :Advanced [email protected]
Параметр BVOP формата :2
Параметр Qpel формата :Yes
Параметр GMC формата :3
Параметр Matrix формата :Default (H.263)
Идентификатор кодека :XVID
Продолжительность :1h 23mn 42s 960ms
Битрейт :1 937 Kbps
Ширина :720 pixels
Высота :536 pixels
Соотношение сторон :1.343
Частота кадров :25.000 fps
Глубина цвета :8 bits
Подвыборка цветности :4:2:0
Цветовое пространство :YUV
Тип развертки :Progressive
Бит/(Пиксели*Кадры) :0.201
Размер потока :1.13 GiB (83%)
Библиотека кодирования :XviD0047

Аудио #1
Идентификатор :1
Формат :AC-3
Формат/Информация :Audio Coding 3
Идентификатор кодека :2000
Продолжительность :01:23:42.368
Вид битрейта :Constant
Битрейт :384 Kbps
Канал(ы) :6 channels
Расположение каналов :Front: L C R, Side: L R, LFE
Частота :48.0 KHz
Битовая глубина :16 bits
Метод сжатия :Lossy
Размер потока :230 MiB (16%)

&nbs
0e48f6163fa5e05ece77fff462964a7cd34d94b4Деревня Утка (Борис Бунеев, семейный, 1976) [DVDRip, Не требуется] Деревня Утка (Борис Бунеев, семейный, 1976) [DVDRip, Не требуется] " />

Аплоадер: Админ, дата: 5-03-2013, 21:48, торрент скачан: 359 раз

Понравилась раздача? Посмотрите эти:
  • Подранки (Николай Губенко, драма, 1976) [DVDRip, Не требуется]
  • Дни хирурга Мишкина (3 части из 3) (Вадим Зобин, драма, 1967) [DVDRip, Не т ...
  • Аленка (Борис Барнет, комедия, 1961) [DVDRip, Не требуется]
  • Дневной поезд (Инесса Селезнева, драма, 1976) [DVDRip, Не требуется]
  • Таинственная находка (Борис Бунеев, детский, приключения, 1954) [DVDRip, Не ...
  • Пакет (Владимир Назаров, комедия, приключения, семейный, 1965) [DVDRip, Не ...
  • И вот пришел Бумбо... (Надежда Кошеверова, В. Апананский, Н. Окунцова, семе ...
  • Иван да Марья (Борис Рыцарев, фэнтези, мелодрама, комедия, семейный, музыка ...
  • Мама (Элизабета Бостан, мюзикл, фэнтези, семейный, 1976) [DVDRip, Не требуе ...
  • Князь Игорь (Роман Тихомиров, мюзикл, приключения, 1969) [DVDRip, Не требуе ...
  • Пес Барбос и необычный кросс / Самогонщики / «Сто грамм» для храбрости (Лео ...
  • Печники (Виктор Храмов, драма, 1982) [DVDRip, Не требуется]
  • Подарок чёрного колдуна (Борис Рыцарев, фэнтези, приключения, семейный, 197 ...
  • Всё дело в брате (Валентин Горлов, семейный, 1976) [TVRip, Не требуется]
  • Чучело (2 части из 2) (Ролан Быков, Аркадий Хайт, драма, 1983) [DVDRip, Не ...
  • Славный малый (Борис Барнет, военный, 1943) [DVDRip, Не требуется]
  • Пропало лето (Ролан Быков, Никита Орлов, комедия, семейный, 1963) [DVDRip, ...
  • Сказка о царе Салтане (Александр Птушко, фэнтези, семейный, 1967) [DVDRip, ...
  • Пока бьют часы (Геннадий Васильев, фэнтези, семейный, 1976) [DVDRip, Не тре ...
  • Полустанок (Борис Барнет, мелодрама, комедия, 1963) [DVDRip, Не требуется]
  • Информация
    Посетители, находящиеся в группе Гости, не могут оставлять комментарии к данной публикации.